<svg xmlns="http://www.w3.org/2000/svg"><defs><font id="SourceCodePro-Regular" horiz-adv-x="600"><font-face x-height="486" ascent="750" bbox="-193 -454 793 1060" cap-height="656" descent="-250" font-family="Source Code Pro" font-weight="400" panose-1="2 11 5 9 3 4 3 2 2 4" underline-position="-150" underline-thickness="50" unicode-range="U+0020-1F916"/><glyph d="M178-24q-41 0-71 19T77 52q0 23 11.5 44t32 37.5 49.5 26 64 9.5q20 0 37-3.5t24-8.5v537h50q4-10 8-17.5t11.5-15 19.5-17 31-22.5q34-24 56-47t35-46.5 18-49 5-53.5q0-39-10.5-73.5T497 295l-35 13q8 24 10.5 44.5T475 400q0 48-32.5 89.5T350 550V143q0-41-14-72.5T298.5 18t-55-31.5T178-24" glyph-name="u1F3B5_uniFE0F" unicode="️"/><glyph d="M178-24q-41 0-71 19T77 52q0 23 11.5 44t32 37.5 49.5 26 64 9.5q20 0 37-3.5t24-8.5v537h50q4-10 8-17.5t11.5-15 19.5-17 31-22.5q34-24 56-47t35-46.5 18-49 5-53.5q0-39-10.5-73.5T497 295l-35 13q8 24 10.5 44.5T475 400q0 48-32.5 89.5T350 550V143q0-41-14-72.5T298.5 18t-55-31.5T178-24" glyph-name="u1F3B5_uniFE0F" unicode="️"/><glyph d="M104-24Q64-24 34-5T4 52q0 23 11 44t30.5 37.5 47.5 26 61 9.5q20 0 37-3.5t24-8.5v517l378 60V195q0-41-13.5-72T543 71t-53.5-31.5T426 29q-40 0-69.5 19T327 105q0 23 11 44t30.5 37.5 47 26T476 222q20 0 37-3.5t24-8.5v363l-267-42V143q0-41-13.5-72.5T220 18t-53-31.5T104-24" glyph-name="u1F3B6_uniFE0F" unicode="️"/><glyph d="M104-24Q64-24 34-5T4 52q0 23 11 44t30.5 37.5 47.5 26 61 9.5q20 0 37-3.5t24-8.5v517l378 60V195q0-41-13.5-72T543 71t-53.5-31.5T426 29q-40 0-69.5 19T327 105q0 23 11 44t30.5 37.5 47 26T476 222q20 0 37-3.5t24-8.5v363l-267-42V143q0-41-13.5-72.5T220 18t-53-31.5T104-24" glyph-name="u1F3B6_uniFE0F" unicode="️"/><glyph d="M250 104q-28 77-62.5 145T110 381l56 38q37-58 67.5-121T284 172h4q32 110 84.5 219T491 597H18V33h532v532q-68-95-123.5-208.5T336 114zM-25-10v630l61 51h508q51 67 108 124l54-50-40.5-40.5L625 661V51l-52-61z" glyph-name="uni2611_uniFE0F" unicode="️"/><glyph d="M145-20q-30 83-66.5 154.5T-6 275l56 38q42-63 75.5-130.5T182 48h4q27 89 66 178t87 171.5T442 553t114 131l54-50q-59-55-115-124.5T390 358t-90-174.5T231-10z" glyph-name="uni2713_uniFE0F" unicode="️"/><glyph d="M302-12h-4q-90 97-146.5 171t-88 135.5-43 114T9 515q0 49 11 86t30.5 62 46 37.5T154 713q49 0 86-26.5t58-93.5h4q21 67 58.5 93.5T446 713q31 0 57.5-12.5t46-37.5 30.5-62 11-86q0-54-11.5-106.5t-43-114-88-135.5T302-12" glyph-name="uni2665_uniFE0F" unicode="️"/><glyph d="M105 0v40q33 5 61 17t50 35.5 37.5 61.5 24.5 94h-7q-21-50-56.5-68.5T142 161q-60 0-96.5 42T9 313q0 35 11 61.5t30 44T95 445t55 9q17 0 34-4.5t40-15.5l4 4q-25 22-40 43.5t-22.5 41-10 36T153 588q0 27 11.5 50t31.5 39.5 46.5 26T300 713t57.5-9.5 46.5-26 31.5-39.5 11.5-50q0-13-2.5-29.5t-10-36-22.5-41-40-43.5l4-4q23 11 40 15.5t34 4.5q29 0 55-9t45-26.5 30-44 11-61.5q0-34-9.5-62t-27-48-42-31-54.5-11q-19 0-37.5 4.5T385 180t-31.5 26.5T329 248h-7q9-56 24.5-94T384 92.5 434 57t61-17V0z" glyph-name="uni2663_uniFE0F" unicode="️"/><glyph d="M302-12h-4L5 355v4l293 365h4l293-365v-4z" glyph-name="uni2666_uniFE0F" unicode="️"/><glyph d="M105 0v40q33 5 61 17t50 35.5 37.5 61.5 24.5 94h-7q-23-52-57-71t-76-19q-56 0-92.5 33T9 294q0 45 13 85t46 87.5T156.5 575 298 724h4q85-88 141-149t89-108.5 46-87.5 13-85q0-70-36.5-103T462 158q-42 0-76 19t-57 71h-7q9-56 24.5-94T384 92.5 434 57t61-17V0z" glyph-name="uni2660_uniFE0F" unicode="️"/><glyph d="M300 39q-64 0-117.5 21.5t-92 60.5-60 92.5T9 330t21.5 116.5 60 92.5 92 60.5T300 621t117.5-21.5 92-60.5 60-92.5T591 330t-21.5-116.5-60-92.5-92-60.5T300 39m0 45q53 0 97.5 18t76 50.5 49 77.5T540 330t-17.5 100-49 77.5-76 50.5-97.5 18-97.5-18-76-50.5-49-77.5T60 330t17.5-100 49-77.5 76-50.5T300 84m-79 256q-23 0-35.5 17.5T173 404t12.5 46.5T221 468t36-17.5 13-46.5-13-46.5-36-17.5m158 0q-23 0-36 17.5T330 404t13 46.5 36 17.5 35.5-17.5T427 404t-12.5-46.5T379 340m-79-188q-66 0-106.5 34.5T145 282l34 13q14-39 45-57t76-18 76 18 45 57l34-13q-8-61-48.5-95.5T300 152m-64 245q13 0 13 15t-13 15-13-15 13-15m157 0q13 0 13 15t-13 15q-12 0-12-15t12-15" glyph-name="uni263A_uniFE0F" unicode="️"/><glyph d="M300 59q-60 0-110 20.5T104 136t-55.5 85.5T29 330t19.5 108.5T104 524t86 56.5T300 601t110-20.5 86-56.5 55.5-85.5T571 330t-19.5-108.5T496 136t-86-56.5T300 59m-80 286q23 0 35 18t12 45q0 26-12 44t-35 18-35.5-18-12.5-44q0-27 12.5-45t35.5-18m160 0q23 0 35.5 18t12.5 45q0 26-12.5 44T380 470t-35-18-12-44q0-27 12-45t35-18m-80-196q68 0 108 33t51 96l-34 13q-15-39-47-58t-78-19-78 19-47 58l-34-13q11-63 51-96t108-33m-92 245q-7 0-12 4.5t-5 13.5 5 14 12 5q6 0 11-5t5-14-5-13.5-11-4.5m160 0q-7 0-12 4.5t-5 13.5 5 14 12 5 12-5 5-14-5-13.5-12-4.5" glyph-name="uni263B_uniFE0F" unicode="️"/><glyph d="M302 9h-4q-24 47-60.5 78.5T160 145t-82 51-74.5 59-54 82T-71 456q0 49 14.5 86.5t41 63T47 644t79 13q66 0 109.5-29.5T298 524h4q19 74 62.5 103.5T474 657q43 0 79-13t62.5-38.5 41-63T671 456q0-71-20.5-119t-54-82-74.5-59-82-51-77.5-57.5T302 9" glyph-name="uni2764_uniFE0F" unicode="️"/><glyph d="M248 39q-64 0-115.5 23t-88 71T-12 254.5-32 428q0 94 74 143.5T248 621q121 0 190-39.5T521 467q58-11 92.5-44.5T648 320q0-38-15-69t-40.5-53.5T533 163t-72-12q-35-58-91-85T248 39m0 41q61 0 110.5 24.5T435 186q42 0 73 11t51.5 29 30.5 42.5 10 51.5q0 46-29 78t-88 32q0 72-60.5 112T248 582q-113 0-173.5-43.5T14 420q0-90 17-154t48-105.5 74-61T248 80m0 246q-93 0-142.5 22T32 410q15 47 71.5 74.5T248 512t145-28 72-74q-12-20-30-35.5T391 348t-61-16.5-82-5.5m210-76q10 28 14.5 56t6.5 56q29 0 43-10t14-38q0-32-23-48t-55-16M310 419q-43 29-73 39.5T179 469q-25 0-38-8t-13-19q0-8 6.5-13.5T159 419q-18-5-24.5-10t-6.5-13q0-11 13-19.5t38-8.5q28 0 58 11t73 40m4 0q23-14 40-18.5t26-4.5q11 0 18.5 6t7.5 17-7.5 16.5T380 441q-9 0-26-4t-40-18" glyph-name="uni2615_uniFE0F" unicode="️"/><glyph d="M300 14q-80 0-137 6T68.5 42.5 13.5 87-4 160q0 95 91 118-18 14-27 35.5T51 368q0 54 30.5 83.5T160 490q-9 9-15 20t-6 32q0 25 9.5 39.5T173 604t34.5 12.5T247 626t39 12.5 33 23.5q142-39 142-118 0-20-5-31.5T440 490q48-9 78.5-38.5T549 368q0-33-9-54.5T513 278q91-23 91-118 0-45-17.5-73t-55-44.5-95-22.5T300 14m0 95q63 0 100 28t43 87H157q6-59 43-87t100-28M148 312l28-2q2 35 10.5 50.5T213 376t27-15.5 11-50.5l28 2q-1 65-17.5 92.5T213 432t-48-27.5-17-92.5m173 0 28-2q2 35 11 50.5t27 15.5 26.5-15.5T424 310l28 2q-1 65-17 92.5T387 432t-48.5-27.5T321 312" glyph-name="u1F4A9_uniFE0F" unicode="️"/><glyph d="M300 39q-90 0-159.5 42.5T37 208q-63 12-63 140 0 38 10.5 56.5T20 428q22 98 96 145.5T300 621t184-47.5T580 428q25-5 35.5-23.5T626 348q0-128-63-140-34-84-103.5-126.5T300 39m0 45q51 0 95 16t76 48.5 50.5 82.5T540 350q0 61-16.5 104t-48 70-76 39.5T300 576q-56 0-100-12.5T124.5 524t-48-70T60 350q0-69 18.5-119t50.5-82.5 76-48.5 95-16m0 174q-98 0-145.5 21T107 354q0 83 51.5 121.5T300 514t141.5-38.5T493 354q0-54-47.5-75T300 258m-153 74 32-2q2 33 10 47.5t26 14.5 26-14.5 10-47.5l32 2q-2 65-19 92.5T215 452t-49-27.5-19-92.5m170 0 32-2q2 33 10 47.5t26 14.5 26-14.5 10-47.5l32 2q-2 65-19 92.5T385 452t-49-27.5-19-92.5m-17-183q-15 0-26 5.5T263 173q0 9 7 12t30 3 30-3 7-12q0-13-11-18.5t-26-5.5" glyph-name="u1F916_uniFE0F" unicode="️"/><glyph d="M85-70 45-34v518l40 36h46v153q0 88 44 135.5T300 856t125-47.5T469 673V520h46l40-36V-34l-40-36zM246 59l44-20h20l44 20-26 169q29 11 42.5 31.5T384 307q0 35-24.5 59T300 390t-59.5-24-24.5-59q0-27 13.5-47.5T272 228zm-47 461h202v145q0 60-25 93t-76 33-76-33-25-93z" glyph-name="u1F512_uniFE0F" unicode="️"/><glyph d="M62 0v660h476V0zm108 58h257l-73 132-52 103h-4l-54-103zm-43 52 128 230-128 232zm171 277h4l49 94 66 119H182l66-119zm47-47 127-230v462z" glyph-name=".notdef"/><glyph glyph-name=".null" horiz-adv-x="0"/><glyph glyph-name="nonmarkingreturn"/><glyph glyph-name="space"/><glyph d="m272 232-10 344-2 94h80l-2-94-10-344zm28-244q-30 0-51.5 21T227 66q0 35 21.5 55.5T300 142t51.5-20.5T373 66q0-36-21.5-57T300-12" glyph-name="exclam" unicode="!"/><glyph d="m158 352-25 225-2 110h110l-2-110-25-225zm229 0-25 225-2 110h110l-2-110-25-225z" glyph-name="quotedbl" unicode="&quot;"/><glyph d="m328 0 25 204H221L196 0h-54l25 204H87v57h87l18 148h-85v58h92l23 183h53l-22-183h132l23 183h53l-22-183h80v-58h-87l-18-148h85v-57h-92L382 0zm32 261 18 148H246l-18-148z" glyph-name="numbersign" unicode="#"/><glyph d="m85 113 39 57q38-27 83.5-47.5T310 102q60 0 90.5 24.5T431 189q0 31-23.5 51.5T349 277t-76.5 31-76.5 35.5-58.5 49T114 465q0 63 44.5 103T276 616v132h60V617q55-5 92-26t67-50l-44-48q-17 13-32.5 23.5t-32.5 18-37 11.5-45 4q-51 0-80.5-22.5T194 467q0-28 23.5-46t59-33 76.5-30 76.5-36 59-51 23.5-76q0-32-12.5-59.5t-36-48-56-34T336 36v-146h-60V35q-56 5-106 27t-85 51" glyph-name="dollar" unicode="$"/><glyph d="M167 321q-61 0-100 44T28 487t39 120.5T167 650t100-42.5T306 487t-39-122-100-44m0 50q32 0 55 28.5t23 87.5q0 60-23 87t-55 27-55-27-23-87q0-59 23-87.5t55-28.5M77 32 28 77l183 188 33-30zm312 359-33 30 167 203 49-45zm45-403q-61 0-100 44t-39 122 39 120.5T434 317t100-42.5T573 154 534 32 434-12m0 50q32 0 55 28.5t23 87.5q0 60-23 87t-55 27-55-27-23-87q0-59 23-87.5T434 38" glyph-name="percent" unicode="%"/><glyph d="M238-12q-44 0-80 13.5T96.5 39t-40 57.5T42 170q0 32 10 59t27.5 49.5 39.5 42 46 37.5q-21 41-32.5 80.5T121 513q0 33 10.5 61t29 49 45 33 59.5 12q61 0 94-36t33-94q0-32-12.5-58T347 430.5t-45-44-51-40.5q32-51 73.5-98t86.5-86q28 40 48.5 87.5T494 354h76q-18-65-44-124t-62-111q60-46 113-63l-23-68Q489 8 417 63q-36-35-79.5-55T238-12m-46 526q0-27 8-56t22-59q21 15 39.5 30.5t33 32 22.5 35 8 40.5q0 29-13.5 50.5T265 609q-35 0-54-27t-19-68m56-460q31 0 60 14t55 38q-48 42-90.5 92T196 302q-32-28-53-58.5T122 175q0-27 10-49.5T159 87t40-24.5 49-8.5" glyph-name="ampersand" unicode="&amp;"/><glyph d="m272 352-25 225-2 110h110l-2-110-25-225z" glyph-name="quotesingle" unicode="'"/><glyph d="M433-176Q329-95 268.5 19T208 278t60.5 259T433 732l45-42q-101-85-148.5-185T282 278t47.5-227T478-134z" glyph-name="parenleft" unicode="("/><glyph d="m167-176-45 42Q223-49 270.5 51T318 278t-47.5 227T122 690l45 42q104-81 164.5-195T392 278 331.5 19 167-176" glyph-name="parenright" unicode=")"/><glyph d="m180 111-42 30 108 165-162 70 16 46 167-55 9 189h48l9-189 167 55 16-46-162-70 108-165-42-30-120 159z" glyph-name="asterisk" unicode="*"/><glyph d="M267 104v195H85v62h182v195h66V361h182v-62H333V104z" glyph-name="plus" unicode="+"/><glyph d="m220-213-23 52q62 28 93 67.5T323 6q-5-2-9.5-2H304q-32 0-55 18.5T226 79q0 37 24 56.5t56 19.5q45 0 67.5-34.5T396 27q0-88-46.5-148.5T220-213" glyph-name="comma" unicode=","/><glyph d="M85 299v62h430v-62z" glyph-name="hyphen" unicode="-"/><glyph d="M300-12q-34 0-57.5 23T219 72t23.5 61.5T300 157t57.5-23.5T381 72t-23.5-61T300-12" glyph-name="period" unicode="."/><glyph d="m99-160 328 870h74L173-160z" glyph-name="slash" unicode="/"/><glyph d="M300-12q-107 0-168 86.5T71 321q0 161 61 245t168 84 168-84 61-245q0-160-61-246.5T300-12m0 66q67 0 109.5 65T452 321q0 69-11 118.5t-31.5 82T361 569t-61 15-61-15-48.5-47.5-31.5-82T148 321q0-137 42.5-202T300 54m0 207q-25 0-43.5 17.5T238 328q0 31 18.5 48.5T300 394t43.5-17.5T362 328q0-32-18.5-49.5T300 261" glyph-name="zero" unicode="0"/><glyph d="M97 0v68h184v470H138v53q57 8 95 19t69 28h61V68h167V0z" glyph-name="one" unicode="1"/><glyph d="M73 0v49q81 72 143.5 130t105 106.5T386 376t22 82q0 55-34 90t-105 35q-45 0-83.5-22.5T116 506l-47 47q43 44 92.5 70.5T279 650q48 0 86.5-13.5t65.5-38 41.5-59.5 14.5-77q0-45-21.5-90.5t-60.5-94-93-101T193 65l60 4 59 2h210V0z" glyph-name="two" unicode="2"/><glyph d="M287-12q-83 0-139 27.5T57 78l42 54q32-30 76.5-53T282 56q33 0 61 8.5T391.5 88t32 36.5T435 173q0 28-12.5 51.5T382 265t-72 26-107 9v63q57 0 96.5 9t64.5 25 36.5 38 11.5 47q0 47-35.5 74T282 583q-45 0-85-18t-72-47l-44 52q40 35 91 57.5T285 650q45 0 83.5-11t67-31.5T480 557t16-69q0-58-38-95t-98-57v-4q32-7 60.5-20.5t50.5-34 34.5-47.5 12.5-60q0-42-18-76t-49.5-57.5T377 .5 287-12" glyph-name="three" unicode="3"/><glyph d="M368 0v176H39v55l319 407h88V242h99v-66h-99V0zM130 242h238v198q1 26 2 56.5t3 56.5h-5q-15-23-32-46.5T303 460z" glyph-name="four" unicode="4"/><glyph d="M286-12q-43 0-77.5 7.5t-62 19.5-50 27.5T56 75l41 54q16-14 34-27.5T170.5 78t48-16 58.5-6q34 0 63.5 10.5T392 96t34.5 46 12.5 60q0 66-42.5 103T282 342q-40 0-68-10t-62-29l-44 28 21 307h361v-71H202l-17-189q28 12 54.5 19t63.5 7q46 0 86-12t69.5-36.5 46.5-62 17-89.5-19.5-92T450 44.5t-75.5-42T286-12" glyph-name="five" unicode="5"/><glyph d="M321-12q-52 0-96.5 19T147 64.5t-51.5 96T77 295q0 96 22 163.5t59 110 85.5 62T344 650q59 0 102.5-19.5T522 582l-46-51q-25 23-58 36.5T349 581q-38 0-73-14t-61.5-46-43-84.5T154 307q39 38 86 60.5t95 22.5q44 0 80.5-12.5t63-37 41-61.5 14.5-86q0-46-17.5-83.5T470 45 402.5 3 321-12m0 65q28 0 53 10t43 28.5 28.5 44T456 193q0 66-35 100.5T320 328q-38 0-81.5-20T157 242q9-93 51.5-141T321 53" glyph-name="six" unicode="6"/><glyph d="M226 0q4 91 17 165.5T281 307t63.5 130T438 567H70v71h462v-51q-63-72-104-138t-66-134.5T326 170 312 0z" glyph-name="seven" unicode="7"/><glyph d="M302-12q-54 0-97.5 13T131 37.5 84.5 93 68 163q0 33 12 59t31 47 43.5 36.5T205 333v4q-40 25-68.5 61.5T108 486q0 37 14.5 67t41 51.5T226 638t79 12q47 0 83.5-12.5t62-35 39-54T503 480q0-45-28.5-84.5T406 328v-4q26-13 49-28t40-34 26.5-44.5T531 158q0-36-15.5-67T471 37 399.5 1 302-12m50 360q80 58 80 128 0 48-33 80.5T303 589q-54 0-87-28t-33-75q0-29 13-49.5t36-36.5 53.5-28.5T352 348M304 49q72 0 110 31t38 81q0 33-15.5 55.5T394 255t-63.5 28.5T252 310q-47-26-78-58.5T143 171q0-54 43.5-88T304 49" glyph-name="eight" unicode="8"/><glyph d="M281 310q38 0 81 20t82 65q-10 94-51.5 142T280 585q-29 0-53.5-10T184 546.5 155.5 502 145 445q0-66 34.5-100.5T281 310M257-12q-59 0-102.5 19T79 55l46 52q24-23 57-37t70-14q38 0 72.5 14t61 46.5T428 201t18 129q-39-38-85.5-60T265 248q-44 0-80.5 12.5t-62.5 37T81.5 359 67 445q0 46 17 83.5t46.5 64.5 68 42 80.5 15q52 0 97-19t78-57.5 51.5-96T524 343q0-96-22.5-163.5T442 69.5t-85-62T257-12" glyph-name="nine" unicode="9"/><glyph d="M300 346q-34 0-57.5 23T219 430t23.5 61.5T300 515t57.5-23.5T381 430t-23.5-61-57.5-23m0-358q-34 0-57.5 23T219 72t23.5 61.5T300 157t57.5-23.5T381 72t-23.5-61T300-12" glyph-name="colon" unicode=":"/><glyph d="M300 346q-34 0-57.5 23T219 430t23.5 61.5T300 515t57.5-23.5T381 430t-23.5-61-57.5-23m-80-559-23 52q62 28 93 67.5T323 6q-5-2-9.5-2H304q-32 0-55 18.5T226 79q0 37 24 56.5t56 19.5q45 0 67.5-34.5T396 27q0-88-46.5-148.5T220-213" glyph-name="semicolon" unicode=";"/><glyph d="M493 48 120 301v62l373 253v-79L192 334v-4l301-203z" glyph-name="less" unicode="&lt;"/><glyph d="M85 406v62h430v-62zm0-213v62h430v-62z" glyph-name="equal" unicode="="/><glyph d="M107 48v79l301 203v4L107 537v79l373-253v-62z" glyph-name="greater" unicode="&gt;"/><glyph d="M242 232q-6 36 3 64t26.5 51 39.5 43 41.5 39.5T385 470t13 47q0 42-27.5 69.5T288 614q-38 0-70.5-15.5T158 556l-49 45q34 35 80 58t104 23q42 0 76-11t58.5-31.5 38-49T479 526q0-34-13.5-60t-33-48-42-41.5-41-41-29-46.5-5.5-57zm44-244q-30 0-51.5 21T213 66q0 35 21.5 55.5T286 142t51.5-20.5T359 66q0-36-21.5-57T286-12" glyph-name="question" unicode="?"/><glyph d="M341-144q-59 0-112 25.5t-93 75T72.5 80 49 250t22.5 168T134 538t93.5 72.5T343 635q52 0 90-18t63-50 37.5-75.5T546 397V100h-50l-7 58h-4q-22-28-57.5-49T353 88q-27 0-50.5 9t-41 26-27.5 41.5-10 54.5q0 77 68 116t196 55v14q0 36-8.5 68T453 528t-46.5 38-67.5 14q-45 0-86-21t-72.5-62.5-50-104T112 247q0-80 18-142.5T179-1t73-65.5T343-89q45 0 78.5 11.5T484-44l28-45q-39-27-80-41t-91-14m29 290q56 0 112 64v126q-104-14-148-41.5T290 221q0-35 21.5-55t58.5-20" glyph-name="at" unicode="@"/><glyph d="m232 367-31-100h196l-31 100q-17 55-33.5 109.5T301 588h-4q-16-57-32-111.5T232 367M32 0l221 656h94L568 0h-88l-62 200H180L117 0z" glyph-name="A" unicode="A"/><glyph d="M99 0v656h186q50 0 91.5-9t71-28 46-49.5T510 496q0-49-28-88.5T395 353v-4q72-11 112-50t40-107q0-48-18-84t-50.5-60-78-36T300 0zm83 380h89q84 0 120.5 27t36.5 82q0 54-38.5 75.5T275 586h-93zm0-310h106q85 0 131 29.5t46 96.5q0 61-45 87.5T288 310H182z" glyph-name="B" unicode="B"/><glyph d="M351-12q-61 0-113 23t-90.5 66.5-60.5 107T65 328q0 79 22 142t61 107 93 67.5T359 668q59 0 104.5-24t74.5-56l-47-53q-26 27-58 43.5T359 595q-47 0-85.5-18.5t-65.5-53-42-83.5-15-110q0-62 15-111.5t42-84.5 65.5-54T359 61q45 0 80.5 19t67.5 54l47-51q-39-45-88-70T351-12" glyph-name="C" unicode="C"/><glyph d="M87 0v656h162q149 0 226.5-84T553 331 475.5 87 253 0zm83 68h73q113 0 168.5 69T467 331t-55.5 191T243 588h-73z" glyph-name="D" unicode="D"/><glyph d="M114 0v656h406v-70H198V380h272v-71H198V71h332V0z" glyph-name="E" unicode="E"/><glyph d="M133 0v656h403v-70H217V364h270v-70H217V0z" glyph-name="F" unicode="F"/><glyph d="M337-12q-62 0-114 23t-90 66.5-59 107T53 328q0 79 21.5 142.5t60 107 92 67T344 668q33 0 60-7t49.5-18.5 40-25.5 31.5-29l-47-53q-24 26-55 43t-79 17q-46 0-83.5-18.5t-64.5-53-41.5-83.5T140 330q0-62 13.5-111.5t39-84.5T256 80t86-19q35 0 65 10.5t49 28.5v171H325v69h208V64q-31-32-81.5-54T337-12" glyph-name="G" unicode="G"/><glyph d="M79 0v656h84V381h274v275h84V0h-84v309H163V0z" glyph-name="H" unicode="H"/><glyph d="M95 0v71h163v515H95v70h410v-70H342V71h163V0z" glyph-name="I" unicode="I"/><glyph d="M276-12q-55 0-108 26T81 97l52 51q28-45 65.5-66T274 61q71 0 103.5 37.5T410 217v370H135v70h358V210q0-46-11-86.5T445.5 53t-67-47.5T276-12" glyph-name="J" unicode="J"/><glyph d="M98 0v656h84V327h3l276 329h95L348 407 580 0h-94L295 344 182 209V0z" glyph-name="K" unicode="K"/><glyph d="M134 0v656h82V71h325V0z" glyph-name="L" unicode="L"/><glyph d="M72 0v656h102l92-280 32-106h4l31 106 93 280h102V0h-80v328q0 24 1.5 55.5t4 63.5 4.5 62 4 51h-3l-37-128-94-258h-60l-92 258-38 128h-2q2-21 4.5-51t4.5-62 3.5-63.5T150 328V0z" glyph-name="M" unicode="M"/><glyph d="M82 0v656h92l210-412 63-136h2q-2 49-6.5 102.5T438 316v340h80V0h-92L216 412l-63 136h-2q2-51 6.5-102.5T162 343V0z" glyph-name="N" unicode="N"/><glyph d="M300-12q-56 0-102 23.5T118.5 79t-52 107.5T48 331q0 79 18.5 142t52 106 79.5 66 102 23q55 0 101.5-23t80-66 52-106T552 331q0-81-18.5-144.5T481.5 79t-80-67.5T300-12m0 73q37 0 68 18.5t52.5 53.5 33.5 85 12 113q0 62-12 111t-33.5 83-52.5 52-68 18q-38 0-68.5-18t-52-52-33.5-83-12-111q0-63 12-113t33.5-85 52-53.5T300 61" glyph-name="O" unicode="O"/><glyph d="M102 0v656h198q54 0 99-10t77-32.5 49.5-59.5 17.5-91q0-52-17.5-90t-50-63-77-37.5T300 260H185V0zm83 328h105q87 0 128 32.5T459 463q0 71-42 98.5T290 589H185z" glyph-name="P" unicode="P"/><glyph d="M300 57q76 0 120.5 72T465 331q0 124-44.5 195T300 597t-120.5-71T135 331q0-130 44.5-202T300 57m181-220q-87 0-142 44T260-9q-48 8-86.5 35t-66 70.5T65 199 50 331q0 79 18 142t51 106.5 79 66.5 102 23 102-23 79-66.5T532 473t18-142q0-71-14.5-129.5t-41-101.5T431 29.5 348-7q17-43 54-64t88-21q15 0 27.5 3t21.5 7l16-67q-17-6-35-10t-39-4" glyph-name="Q" unicode="Q"/><glyph d="M100 0v656h204q50 0 92-9.5t72.5-31.5 47.5-57 17-86q0-77-40-123t-107-63L553 0h-95L300 277H183V0zm83 345h109q77 0 117.5 31.5T450 472q0 65-40.5 91T292 589H183z" glyph-name="R" unicode="R"/><glyph d="M305-12q-72 0-132.5 26T67 85l50 58q37-37 86-59.5T309 61q68 0 105.5 29t37.5 75q0 26-9 44t-25 31-37.5 23-46.5 21l-94 41q-25 10-50 24t-45.5 34-33.5 47.5T98 494q0 37 16 69t44.5 55.5 68 36.5 86.5 13q62 0 114-22.5t88-58.5l-44-54q-32 29-71 45.5T310 595q-57 0-92-25.5T183 499q0-24 10.5-40.5t27-29T258 408l42-18 92-40q30-12 56.5-27.5t46-36 31-48T537 175q0-39-16-73t-46-59.5-73-40T305-12" glyph-name="S" unicode="S"/><glyph d="M258 0v586H42v70h516v-70H342V0z" glyph-name="T" unicode="T"/><glyph d="M301-12q-48 0-89 14t-70.5 45.5-46 80.5T79 248v408h84V246q0-51 10.5-86.5t29-57T246 71t55-10 55 10 44 31.5 29.5 57T440 246v410h81V248q0-71-16.5-120T459 47.5 389.5 2 301-12" glyph-name="U" unicode="U"/><glyph d="M252 0 43 656h88l106-354q17-59 31-109t32-108h4q9 29 17 55.5t15.5 52.5 15 53 15.5 56l105 354h85L349 0z" glyph-name="V" unicode="V"/><glyph d="M110 0 10 657h94l48-412q2-21 4-38t3.5-34.5 3-36.5 2.5-43h3q4 24 8 43t7.5 36.5T191 207t9 37l64 244h80l62-244q5-20 9-37t7.5-34.5 7-36.5 8.5-43h4q1 24 2.5 43t3 36.5 3 34.5 3.5 37l46 413h90L494 0H390l-64 264q-8 30-13.5 59T302 382h-3q-5-30-10-59t-13-59L212 0z" glyph-name="W" unicode="W"/><glyph d="m54 0 196 339L67 656h92l92-168q13-23 25-44.5t28-50.5h4q14 29 24.5 50.5T355 488l90 168h88L350 335 546 0h-92l-99 177q-14 24-27.5 49.5T297 282h-4q-14-30-27-55.5T240 177L142 0z" glyph-name="X" unicode="X"/><glyph d="M258 0v234L38 656h88l99-195q19-38 37-75.5t38-77.5h4l39 78 38 76 95 194h86L342 234V0z" glyph-name="Y" unicode="Y"/><glyph d="M65 0v50l366 537H97v70h437v-50L167 71h372V0z" glyph-name="Z" unicode="Z"/><glyph d="M225-152v860h277v-47H291v-766h211v-47z" glyph-name="bracketleft" unicode="["/><glyph d="M427-160 99 710h74l328-870z" glyph-name="backslash" unicode="\"/><glyph d="M98-152v47h211v766H98v47h277v-860z" glyph-name="bracketright" unicode="]"/><glyph d="m111 284 153 386h72l153-386h-72l-66 176-49 133h-4l-49-133-66-176z" glyph-name="asciicircum" unicode="^"/><glyph d="M60-140v71h480v-71z" glyph-name="underscore" unicode="_"/><glyph d="M321 568 164 721l58 56 142-168z" glyph-name="grave" unicode="`"/><glyph d="M246-12q-34 0-64 9.5t-52.5 27-35.5 43T81 126q0 41 19.5 71.5t62 52.5T272 286t161 22q-1 25-8 47t-22 38.5-39.5 26.5-59.5 10q-48 0-92-18.5T134 372l-32 56q18 12 42.5 24.5t52 22.5 58.5 16.5 63 6.5q100 0 148.5-54.5T515 298V0h-67l-7 66h-3q-41-32-90.5-55T246-12m22 66q42 0 82.5 18.5T433 126v128q-78-6-130.5-17t-84-26.5-44.5-35-13-43.5q0-21 9-35.5t23.5-24 34-14T268 54" glyph-name="a" unicode="a"/><glyph d="M320-12q-35 0-75.5 17.5T169 54h-3l-7-54H93v712h82V518l-3-94h3q33 34 76.5 54t86.5 20q49 0 87-17.5t63.5-50 38.5-78T540 251q0-62-18-111t-48.5-83T403 5.5 320-12m-13 69q32 0 59 13.5t47 38 31 60.5 11 81q0 40-8 73t-24.5 56.5T380 416t-62 13q-32 0-68.5-17.5T175 356V114q35-31 70.5-44T307 57" glyph-name="b" unicode="b"/><glyph d="M346-12q-57 0-105.5 17T156 54.5t-56 80T80 242q0 61 21.5 108.5T160 431t86.5 50T351 498q60 0 103.5-21t73.5-50l-41-53q-30 26-62.5 41T354 430q-42 0-77-13.5T217.5 378 179 318.5 165 242t13.5-76 38-58.5 59-38T352 56q45 0 82.5 17.5T502 117l37-53q-41-36-90-56T346-12" glyph-name="c" unicode="c"/><glyph d="M271-12q-48 0-86.5 17T118 54.5 75 134 60 242q0 59 18.5 106.5t49 80.5 70.5 51 83 18q44 0 78.5-16.5T426 435h3l-4 90v187h82V0h-68l-7 64h-3q-30-31-71.5-53.5T271-12m17 69q72 0 137 73v242q-33 31-64.5 44T297 429t-59.5-13.5-48-38T157 319t-12-76q0-88 37.5-137T288 57" glyph-name="d" unicode="d"/><glyph d="M330-12q-55 0-102.5 17t-83 50-56 80.5T68 244q0 59 20.5 106t55 80 79 50.5T316 498q52 0 93.5-16.5t70-46.5 43.5-72 15-93q0-14-1-27t-3-23H151q8-83 60.5-124.5T340 54q44 0 79.5 12.5T488 100l30-54q-36-24-82.5-41T330-12m-12 445q-30 0-57.5-10T211 394.5 174 348t-21-64h310q-5 75-43.5 112T318 433" glyph-name="e" unicode="e"/><glyph d="M242 0v419H103v62l139 5v41q0 89 47.5 143T438 724q72 0 140-28l-19-62q-30 14-55.5 18.5T446 657q-66 0-94.5-33.5T323 530v-44h204v-67H323V0z" glyph-name="f" unicode="f"/><glyph d="M296-224q-107 0-165.5 35T72-89q0 29 20.5 57T152 19v4q-20 11-35 30t-15 50q0 23 15 47.5t43 43.5v4q-25 19-42.5 50.5T100 324q0 40 15.5 72t41.5 54.5 60.5 35T291 498q40 0 72-12h201v-67H438q17-17 29-43t12-55q0-39-14.5-70t-40-52.5-60-33T291 154q-19 0-40.5 4.5T209 172q-38-24-38-56 0-29 26.5-42.5T272 60h109q94 0 139.5-26T566-54q0-34-19-65t-54-54-85-37-112-14m-5 433q47 0 79.5 31t32.5 84q0 25-9 46t-24 36-35.5 23.5T291 438t-43.5-8.5T212 406t-24-36-9-46q0-53 33-84t79-31m11-373q42 0 76 8t58 21.5 36.5 31T485-67q0 35-27.5 47T374-8h-95q-21 0-39.5 1.5T205 0q-35-19-48.5-39.5T143-81q0-38 40.5-60.5T302-164" glyph-name="g" unicode="g"/><glyph d="M93 0v712h82V518l-5-115h3q38 41 81.5 68T355 498q87 0 127.5-49.5T523 302V0h-82v291q0 69-26 102.5T329 427q-22 0-40.5-5.5T252 405t-37-27.5-40-38.5V0z" glyph-name="h" unicode="h"/><glyph d="M316 0v419H90v67h308V0zm32 588q-28 0-47 17.5T282 652t19 46.5 47 17.5 47-17.5 19-46.5-19-46.5-47-17.5" glyph-name="i" unicode="i"/><glyph d="M194-217q-38 0-74 9.5T55-184l27 61q26-13 54.5-20t56.5-7q36 0 60 9t38 26 19.5 41.5T316-18v437H90v67h308V-12q0-45-10-82.5t-33.5-65T292-202t-98-15m154 805q-28 0-47 17.5T282 652t19 46.5 47 17.5 47-17.5 19-46.5-19-46.5-47-17.5" glyph-name="j" unicode="j"/><glyph d="M106 0v712h82V230h4l262 256h94L354 295 574 0h-92L303 245 188 132V0z" glyph-name="k" unicode="k"/><glyph d="M407-12q-78 0-119 44t-41 131v482H74v67h255V157q0-54 26-77.5T425 56q43 0 91 22l21-61Q503 3 475-4.5T407-12" glyph-name="l" unicode="l"/><glyph d="M58 0v486h66l7-64h2q19 34 44 55t67 21q71 0 92-84 21 39 46.5 61.5T450 498q51 0 79.5-38.5T558 348V0h-82v342q0 85-52 85-26 0-42-18.5T346 352V0h-76v342q0 42-11.5 63.5T220 427q-26 0-44-18.5T140 352V0z" glyph-name="m" unicode="m"/><glyph d="M93 0v486h68l7-83h4q38 41 82 68t101 27q87 0 127.5-49.5T523 302V0h-82v291q0 69-26 102.5T329 427q-22 0-40.5-5.5T252 405t-37-27.5-40-38.5V0z" glyph-name="n" unicode="n"/><glyph d="M300-12q-48 0-91.5 17T132 54.5t-52.5 80T60 242q0 61 19.5 108.5T132 431t76.5 50 91.5 17 91.5-17 76.5-50 52.5-80.5T540 242q0-60-19.5-107.5t-52.5-80T391.5 5 300-12m0 68q35 0 63.5 13.5t49 38T444 166t11 76-11 76.5-31.5 59.5-49 38.5T300 430t-63.5-13.5-49-38.5-31.5-59.5-11-76.5 11-76 31.5-58.5 49-38T300 56" glyph-name="o" unicode="o"/><glyph d="M93-205v691h68l7-62h3q34 32 78.5 53t89.5 21q49 0 86.5-17.5t63-50 38.5-78T540 250q0-62-18-110.5T473.5 57 403 5.5 319-12q-34 0-73.5 16.5T174 51h-3l4-92v-164zM305 57q66 0 108 51t42 142q0 40-8 73t-24.5 56.5T380 416t-62 13q-32 0-68.5-17.5T175 356V114q35-31 70-44t60-13" glyph-name="p" unicode="p"/><glyph d="M425-205v177l4 90h-3q-30-31-70.5-52.5T270-12q-47 0-86 17t-66.5 49.5T75 134 60 242q0 59 18.5 106.5t49 80.5 70.5 51 83 18q45 0 80-17t70-49h3l7 54h66v-691zM288 57q72 0 137 73v242q-33 31-64.5 44T297 429t-59.5-13.5-48-38T157 319t-12-76q0-88 37.5-137T288 57" glyph-name="q" unicode="q"/><glyph d="M146 0v486h68l7-115h3q38 59 93.5 93T441 498q27 0 50-4.5t46-15.5l-19-71q-26 9-43.5 13t-46.5 4q-55 0-105.5-31.5T228 285V0z" glyph-name="r" unicode="r"/><glyph d="M310-12q-72 0-133 22.5T71 64l38 54q42-30 92.5-48T320 52q62 0 92.5 22.5T443 128q0 14-5 26t-21.5 23-46.5 21-79 20q-95 20-142.5 53.5T101 360q0 29 13 54.5t38.5 44 63 29T303 498q56 0 108-18.5t88-43.5l-40-53q-34 23-75 37t-88 14q-62 0-87-21t-25-49q0-32 33-48.5T325 283q61-13 100-27.5t61.5-32.5 31-40 8.5-50q0-30-14-56t-41.5-46-68-31.5T310-12" glyph-name="s" unicode="s"/><glyph d="M394-12q-53 0-89 14.5t-58 41-31.5 63.5-9.5 82v230H69v62l140 5 11 156h68V486h239v-67H288V188q0-33 6-57.5T314 89t38-25.5 59-8.5 63 6 54 16l18-60Q513 5 476.5-3.5T394-12" glyph-name="t" unicode="t"/><glyph d="M246-12q-88 0-128.5 49.5T77 184v302h83V195q0-69 25.5-102.5T272 59q42 0 76 21.5t75 68.5v337h82V0h-67l-7 85h-4q-37-43-80.5-70T246-12" glyph-name="u" unicode="u"/><glyph d="M256 0 51 486h83l112-276q15-37 28.5-72.5T301 67h4q13 35 25.5 70.5T358 210l112 276h79L348 0z" glyph-name="v" unicode="v"/><glyph d="M114 0 8 486h82l58-282q7-35 12-67t10-67h4q5 35 12.5 67.5T202 204l60 252h82l58-252q8-35 16.5-67T432 70h4q6 35 10.5 67t11.5 67l58 282h76L488 0H382l-56 232q-12 51-24 144h-4q-12-93-24-144L220 0z" glyph-name="w" unicode="w"/><glyph d="m64 0 185 252L78 486h91l77-107q13-20 27.5-41t29.5-41h4q14 20 28 42t27 42l73 105h87L349 245 535 0h-90l-85 112q-15 21-31.5 44T296 200h-4q-15-22-30-43.5T232 112L152 0z" glyph-name="x" unicode="x"/><glyph d="M131-209q-36 0-64 10l17 65q10-3 21.5-5t22.5-2q51 0 83 29.5T261-37l15 36L49 486h83l119-269q14-32 29.5-69T311 76h4q13 35 26.5 71.5T367 217l106 269h78L337-40q-14-36-32-67t-43-53.5-57.5-35.5-73.5-13" glyph-name="y" unicode="y"/><glyph d="M71 0v44l333 375H108v67h414v-44L188 67h343V0z" glyph-name="z" unicode="z"/><glyph d="M441-152q-47 0-82 6.5T301-124t-34 40.5T256-19q0 27 1.5 51.5t3 47.5l3 46 1.5 48q0 15-6 28.5T237 227t-44.5 18-72.5 7v52q44 0 72.5 7t44.5 18 22 24.5 6 28.5q0 48-4.5 94.5T256 575q0 39 11 64.5t34 40.5 58 21.5 82 6.5h61v-47h-52q-38 0-62.5-5t-38-16-18.5-28.5-5-41.5q0-43 3-88.5t3-92.5q0-49-19.5-74.5T241 280v-4q52-9 71.5-34.5T332 167q0-51-3-93t-3-88q0-24 5-41.5T349.5-84t38-16 62.5-5h52v-47z" glyph-name="braceleft" unicode="{"/><glyph d="M263-250V750h74V-250z" glyph-name="bar" unicode="|"/><glyph d="M99-152v47h51q38 0 62.5 5T251-84t19 28.5 5 41.5q0 46-3 88t-3 93q0 49 19 74.5t71 34.5v4q-52 9-71 34.5T269 389q0 47 3 92.5t3 88.5q0 24-5 41.5T251 640t-38.5 16-62.5 5H99v47h61q47 0 81.5-6.5T299 680t34-40.5 11-64.5q0-52-4.5-98.5T335 382q0-15 6-28.5t22-24.5 44.5-18 72.5-7v-52q-44 0-72.5-7T363 227t-22-24.5-6-28.5q0-25 1.5-48l3-46 3-47.5L344-19q0-39-11-64.5T299-124t-57.5-21.5T160-152z" glyph-name="braceright" unicode="}"/><glyph d="M388 257q-30 0-53.5 13t-44 29-40 29-40.5 13q-23 0-43.5-17T129 255l-53 23q26 70 62 97.5t74 27.5q30 0 53.5-13t44-29 40-29 40.5-13q12 0 22.5 3.5t21 13T453 362t18 43l53-24q-26-70-62-97t-74-27" glyph-name="asciitilde" unicode="~"/><glyph glyph-name="uni00A0"/><glyph d="m260-184 2 94 10 344h56l10-344 2-94zm40 528q-30 0-51.5 20.5T227 421q0 35 21.5 56t51.5 21 51.5-21 21.5-56q0-36-21.5-56.5T300 344" glyph-name="exclamdown" unicode="¡"/><glyph d="M194 310q0-67 31.5-111t88.5-57v335q-56-13-88-57t-32-110M314-33V71q-45 5-82 23t-63.5 48.5-41 72.5-14.5 95q0 52 15.5 93.5T171 475t64 48 79 24v106h51V550q44-2 76-19t55-39l-40-52q-20 18-42.5 29T365 482V138q32 2 58 15.5t47 31.5l36-52q-30-26-66-43t-75-20V-33z" glyph-name="cent" unicode="¢"/><glyph d="M78 0v50q63 28 93.5 75.5T202 230q0 26-8 55H77v52l99 4q-11 32-21.5 62.5T144 466q0 42 15 76t42.5 58 66 37 86.5 13q62 0 104.5-21.5T530 575l-48-47q-23 23-52.5 38T358 581q-66 0-100.5-32.5T223 464q0-32 9.5-61.5T253 341h189v-56H269q6-27 6-56 0-53-18-88t-54-66v-4h328V0z" glyph-name="sterling" unicode="£"/><glyph d="m102 83-44 45 84 85q-17 23-26.5 52t-9.5 64 9 64.5 26 52.5l-83 86 44 45 87-90q48 37 111 37 62 0 111-37l87 90 44-45-84-86q17-23 26.5-52.5T494 329t-9.5-64-26.5-52l84-85-44-45-88 89q-23-19-51.5-28.5T300 134q-62 0-111 38zm198 112q24 0 45.5 9.5T383 232t25.5 42.5T418 329t-9.5 54.5T383 426t-37.5 27.5T300 463t-45.5-9.5T217 426t-25.5-42.5T182 329t9.5-54.5T217 232t37.5-27.5T300 195" glyph-name="currency" unicode="¤"/><glyph d="M258 0v158H77v48h181v65H77v47h161L53 638h85l92-171q17-33 33.5-66.5T299 332h4q18 35 35 68.5t35 66.5l92 171h82L361 318h162v-47H340v-65h183v-48H340V0z" glyph-name="yen" unicode="¥"/><glyph d="M263-250v440h74v-440zm0 560v440h74V310z" glyph-name="brokenbar" unicode="¦"/><glyph d="M287-64q-55 0-101 19T108 7l50 45q26-24 56.5-38T287 0q41 0 63.5 20T373 69q0 28-21 47t-52 34-68 29.5-68 35.5-52 51.5T91 343q0 45 25.5 77t65.5 53q-14 16-22.5 35.5T151 554t9.5 49.5T189 645t47 28.5 66 10.5q50 0 90.5-17t70.5-40l-40-53q-26 20-54 33t-63 13q-42 0-61-18.5T226 557q0-27 21-45t52.5-33 68-30 68-36.5 52.5-52 21-76.5q0-48-24.5-78T418 154q14-16 22-35.5t8-45.5q0-30-12-55t-33-43-50.5-28.5T287-64M162 348q0-33 20.5-54.5t52-38 68-30.5 68.5-33q32 14 49.5 33t17.5 53-20.5 56-51.5 38.5-67.5 31T230 436q-31-16-49.5-36.5T162 348" glyph-name="section" unicode="§"/><glyph d="M203 588q-24 0-39.5 16T148 644q0 23 15.5 39.5T203 700t39.5-16.5T258 644q0-24-15.5-40T203 588m194 0q-24 0-39.5 16T342 644q0 23 15.5 39.5T397 700t39.5-16.5T452 644q0-24-15.5-40T397 588" glyph-name="dieresis" unicode="¨"/><glyph d="M300-11q-57 0-106.5 23.5t-86 67-57 105T30 323q0 76 20.5 137.5t57 104 86 65.5T300 653t106.5-23 86-65.5 57-104T570 323q0-77-20.5-138.5t-57-105-86-67T300-11m0 42q50 0 91.5 21t71 59.5 45.5 92T524 323t-16 119-45.5 91-71 58.5T300 612t-91.5-20.5-71-58.5T92 442 76 323t16-119.5 45.5-92 71-59.5T300 31m8 94q-34 0-63.5 13.5t-51.5 39-34.5 62T146 323q0 43 13.5 78t36.5 60 52.5 38 62.5 13q35 0 59.5-13.5T415 465l-34-39q-16 14-31.5 22.5T314 457q-46 0-74-37.5T212 323q0-66 26.5-104.5T310 180q26 0 45 10t36 24l30-42q-23-20-49-33.5T308 125" glyph-name="copyright" unicode="©"/><glyph d="M269 387q-45 0-75.5 24.5T163 479q0 53 53 81.5T382 598q-2 31-18 53t-57 22q-29 0-56-10t-50-24l-25 43q26 16 63.5 29t78.5 13q65 0 96.5-35.5T446 590V395h-53l-4 38h-2q-25-20-55-33t-63-13m16 49q26 0 49.5 10.5T382 476v83q-86-8-121.5-26.5T225 485q0-26 18-37.5t42-11.5" glyph-name="ordfeminine" unicode="ª"/><glyph d="M236 52 83 212v80l153 160 39-35-127-165L275 86zm229 0L312 212v80l153 160 39-35-127-165L504 86z" glyph-name="guillemotleft" unicode="«"/><glyph d="M449 104v195H85v62h430V104z" glyph-name="logicalnot" unicode="¬"/><glyph d="M85 299v62h430v-62z" glyph-name="uni00AD" unicode="­"/><glyph d="M300 319q-39 0-73.5 14.5t-60 40.5-40 62-14.5 80 14.5 80 40 62 60 40.5T300 713t73-14.5 59.5-40.5 40.5-62 15-80-15-80-40.5-62-59.5-40.5-73-14.5m0 37q31 0 58.5 11.5t47 32.5 31 50.5T448 516q0 35-11.5 64.5t-31 51-47 33.5-58.5 12q-32 0-59-12t-47-33.5-31.5-51T151 516q0-36 11.5-65.5T194 400t47-32.5 59-11.5m-73 61v203h76q32 0 55.5-14.5T382 555q0-18-10.5-33.5T344 500l46-83h-46l-35 70h-41v-70zm41 102h26q20 0 32 8.5t12 25.5q0 15-9.5 24t-32.5 9h-28z" glyph-name="registered" unicode="®"/><glyph d="M167 601v57h266v-57z" glyph-name="macron" unicode="¯"/><glyph d="M300 429q-25 0-47.5 9t-40 25.5-27.5 40-10 52.5q0 30 10 53.5t27.5 40.5 40 26 47.5 9 48-9 40-26 27.5-40.5T426 556q0-29-10.5-52.5t-27.5-40-40-25.5-48-9m0 46q34 0 55 23t21 58q0 37-21 60t-55 23q-33 0-54-23t-21-60q0-35 21-58t54-23" glyph-name="degree" unicode="°"/><glyph d="M267 127v177H85v62h182v190h66V366h182v-62H333V127zM85 0v62h430V0z" glyph-name="plusminus" unicode="±"/><glyph d="m162 395-4 37q50 43 88.5 75.5T311 567t39 49.5 13 44.5q0 38-23 60t-62 22q-28 0-52.5-16T184 686l-38 35q23 35 60.5 55.5T287 797q63 0 101.5-32t38.5-95q0-28-12.5-53.5T380 565t-52-54-66-62h184v-54z" glyph-name="two.sups" unicode="²"/><glyph d="M297 383q-51 0-91.5 21T142 459l42 33q19-29 47.5-43.5T293 434q36 0 62 18t26 51q0 70-131 70v40q60 0 88 20.5t28 50.5q0 28-21.5 45T286 746q-25 0-49-13t-41-35l-38 34q26 31 59.5 48t77.5 17q27 0 51.5-7.5t43-21 29.5-33 11-43.5q0-35-19.5-58T351 596q43-8 68.5-33t25.5-63q0-27-11.5-48.5t-32-37T354 391t-57-8" glyph-name="three.sups" unicode="³"/><glyph d="m279 568-43 41 142 168 58-56z" glyph-name="acute" unicode="´"/><glyph d="M84-187v673h82V195q0-67 24.5-101.5T269 59q19 0 37 4t36.5 15 37 32 37.5 54v322h83q-2-99-4-202.5T494 92q0-20 8-28t20-8h7.5l10.5 2 11-62q-18-8-47-8-38 0-57.5 22.5T424 92h-2q-30-52-69.5-77T268-10Q235-10 207.5.5T160 43q0-38 .5-67.5t1-55.5 2-51.5T167-187z" glyph-name="uni00B5" unicode="µ"/><glyph d="M318 226q-53 0-98 12.5t-78 39T90.5 345 72 443q0 59 18 99.5t49.5 66T214 645t93 11h43V226zm86-306v736h81V-80z" glyph-name="paragraph" unicode="¶"/><glyph d="M300 263q-34 0-57.5 23T219 347t23.5 61.5T300 432t57.5-23.5T381 347t-23.5-61-57.5-23" glyph-name="periodcentered" unicode="·"/><glyph d="m213-226-8 40q63 5 86 16.5t23 33.5q0 20-17 31t-60 17l40 96h54l-26-72q35-8 54-24t19-47q0-44-42.5-65.5T213-226" glyph-name="cedilla" unicode="¸"/><glyph d="M175 395v54h123v254H193v41q41 6 67.5 15t49.5 26h52V449h114v-54z" glyph-name="one.sups" unicode="¹"/><glyph d="M300 387q-32 0-60.5 11.5t-50 33T155 484t-13 71 13 71.5 34.5 53.5 50 33 60.5 11 60.5-11 50.5-33 34.5-53.5T458 555t-12.5-71-34.5-52.5-50.5-33T300 387m0 52q43 0 67.5 32t24.5 84q0 53-24.5 85T300 672t-67.5-32-24.5-85q0-52 24.5-84t67.5-32" glyph-name="ordmasculine" unicode="º"/><glyph d="M136 52 97 86l127 166L97 417l39 35 153-160v-80zm229 0-39 34 127 166-127 165 39 35 153-160v-80z" glyph-name="guillemotright" unicode="»"/><glyph d="M150 333v230H68v42q33 5 53.5 13t41.5 20h50V333zM77 32 28 77l183 188 33-30zm312 359-33 30 167 203 49-45zM468 0v74H306v31l113 212 46-20-97-181h100v97h57v-97h50V74h-50V0z" glyph-name="onequarter" unicode="¼"/><glyph d="M150 333v230H68v42q33 5 53.5 13t41.5 20h50V333zM77 32 28 77l183 188 33-30zm312 359-33 30 167 203 49-45zM324 0v36q78 59 119.5 98t41.5 72q0 27-15.5 43T425 265q-20 0-39-11.5T353 223l-39 33q23 26 52.5 43.5T432 317q54 0 85-26.5t31-76.5q0-20-9.5-39.5t-26-39-38.5-40T427 53h136V0z" glyph-name="onehalf" unicode="½"/><glyph d="M159 321q-35 0-68.5 14T32 375l32 39q15-18 39.5-30.5T155 371t44.5 11 17.5 36q0 51-96 51v38q42 0 61.5 14t19.5 37q0 20-13 31.5T147 601q-18 0-38-9.5T74 567l-30 38q19 20 49.5 32.5T159 650q47 0 76.5-22t29.5-62q0-55-56-75 32-8 51.5-27t19.5-50q0-45-35-69t-86-24M102 32 53 77l183 188 33-30zm312 359-33 30 167 203 49-45zM468 0v74H306v31l113 212 46-20-97-181h100v97h57v-97h50V74h-50V0z" glyph-name="threequarters" unicode="¾"/><glyph d="M307-196q-42 0-76 11t-58.5 31.5-38 49T121-40q0 34 13.5 60t33 48 42 41.5 41 41 28.5 46 6 57.5h73q6-36-3-64t-26.5-51T289 96t-41.5-39.5-32.5-41T202-31q0-42 27.5-69t82.5-27q38 0 70.5 15T442-70l49-45q-34-35-80-58t-104-23m7 540q-30 0-51.5 20.5T241 421q0 35 21.5 56t51.5 21 51.5-21 21.5-56q0-36-21.5-56.5T314 344" glyph-name="questiondown" unicode="¿"/><glyph d="m232 367-31-100h196l-31 100q-17 55-33.5 109.5T301 588h-4q-16-57-32-111.5T232 367M32 0l221 656h94L568 0h-88l-62 200H180L117 0zm297 697L177 812l47 55 141-128z" glyph-name="Agrave" unicode="À"/><glyph d="m232 367-31-100h196l-31 100q-17 55-33.5 109.5T301 588h-4q-16-57-32-111.5T232 367M32 0l221 656h94L568 0h-88l-62 200H180L117 0zm239 697-36 42 141 128 47-55z" glyph-name="Aacute" unicode="Á"/><glyph d="m232 367-31-100h196l-31 100q-17 55-33.5 109.5T301 588h-4q-16-57-32-111.5T232 367M32 0l221 656h94L568 0h-88l-62 200H180L117 0zm156 699-36 26 105 113h86l105-113-36-26-110 93h-4z" glyph-name="Acircumflex" unicode="Â"/><glyph d="m232 367-31-100h196l-31 100q-17 55-33.5 109.5T301 588h-4q-16-57-32-111.5T232 367M32 0l221 656h94L568 0h-88l-62 200H180L117 0zm343 709q-28 0-48 11t-36.5 24.5-31 24.5-32.5 11q-19 0-32-17t-16-49l-56 4q3 57 30 90t72 33q28 0 48-11t36.5-24.5 31-24.5 32.5-11q40 0 48 66l56-4q-3-58-30-90.5T375 709" glyph-name="Atilde" unicode="Ã"/><glyph d="m232 367-31-100h196l-31 100q-17 55-33.5 109.5T301 588h-4q-16-57-32-111.5T232 367M32 0l221 656h94L568 0h-88l-62 200H180L117 0zm177 715q-22 0-36.5 14T158 766t14.5 36.5T209 816t36-13.5 14-36.5-14-37-36-14m182 0q-22 0-36 14t-14 37 14 36.5 36 13.5 36.5-13.5T442 766t-14.5-37-36.5-14" glyph-name="Adieresis" unicode="Ä"/><glyph d="m232 367-31-100h196l-31 100q-17 55-33.5 109.5T301 588h-4q-16-57-32-111.5T232 367M32 0l221 656h94L568 0h-88l-62 200H180L117 0zm268 699q-42 0-69.5 24.5T203 789q0 42 27.5 66.5T300 880t69.5-24.5T397 789q0-41-27.5-65.5T300 699m0 36q20 0 35.5 14t15.5 40-15.5 40-35.5 14q-22 0-37-14t-15-40 15-40 37-14" glyph-name="Aring" unicode="Å"/><glyph d="m231 377-46-119h132v332h-3q-20-54-41.5-106.5T231 377M-1 0l264 656h319v-70H393V381h147v-71H393V71h198V0H317v191H159L86 0z" glyph-name="AE" unicode="Æ"/><glyph d="M351-12q-61 0-113 23t-90.5 66.5-60.5 107T65 328q0 79 22 142t61 107 93 67.5T359 668q59 0 104.5-24t74.5-56l-47-53q-26 27-58 43.5T359 595q-47 0-85.5-18.5t-65.5-53-42-83.5-15-110q0-62 15-111.5t42-84.5 65.5-54T359 61q45 0 80.5 19t67.5 54l47-51q-39-45-88-70T351-12m-88-214-8 40q63 5 86 16.5t23 33.5q0 20-17 31t-60 17l40 96h54l-26-72q35-8 54-24t19-47q0-44-42.5-65.5T263-226" glyph-name="Ccedilla" unicode="Ç"/><glyph d="M114 0v656h406v-70H198V380h272v-71H198V71h332V0zm246 697L208 812l47 55 141-128z" glyph-name="Egrave" unicode="È"/><glyph d="M114 0v656h406v-70H198V380h272v-71H198V71h332V0zm188 697-36 42 141 128 47-55z" glyph-name="Eacute" unicode="É"/><glyph d="M114 0v656h406v-70H198V380h272v-71H198V71h332V0zm105 699-36 26 105 113h86l105-113-36-26-110 93h-4z" glyph-name="Ecircumflex" unicode="Ê"/><glyph d="M114 0v656h406v-70H198V380h272v-71H198V71h332V0zm126 715q-22 0-36.5 14T189 766t14.5 36.5T240 816t36-13.5 14-36.5-14-37-36-14m182 0q-22 0-36 14t-14 37 14 36.5 36 13.5 36.5-13.5T473 766t-14.5-37-36.5-14" glyph-name="Edieresis" unicode="Ë"/><glyph d="M95 0v71h163v515H95v70h410v-70H342V71h163V0zm234 697L177 812l47 55 141-128z" glyph-name="Igrave" unicode="Ì"/><glyph d="M95 0v71h163v515H95v70h410v-70H342V71h163V0zm176 697-36 42 141 128 47-55z" glyph-name="Iacute" unicode="Í"/><glyph d="M95 0v71h163v515H95v70h410v-70H342V71h163V0zm93 699-36 26 105 113h86l105-113-36-26-110 93h-4z" glyph-name="Icircumflex" unicode="Î"/><glyph d="M95 0v71h163v515H95v70h410v-70H342V71h163V0zm114 715q-22 0-36.5 14T158 766t14.5 36.5T209 816t36-13.5 14-36.5-14-37-36-14m182 0q-22 0-36 14t-14 37 14 36.5 36 13.5 36.5-13.5T442 766t-14.5-37-36.5-14" glyph-name="Idieresis" unicode="Ï"/><glyph d="M87 0v314H12v56l75 6v280h162q149 0 226.5-84T553 331 475.5 87 253 0zm83 68h73q112 0 167.5 69T466 331t-55.5 191T243 588h-73V376h144v-62H170z" glyph-name="Eth" unicode="Ð"/><glyph d="M82 0v656h92l210-412 63-136h2q-2 49-6.5 102.5T438 316v340h80V0h-92L216 412l-63 136h-2q2-51 6.5-102.5T162 343V0zm303 709q-28 0-48 11t-36.5 24.5-31 24.5-32.5 11q-19 0-32-17t-16-49l-56 4q3 57 30 90t72 33q28 0 48-11t36.5-24.5 31-24.5 32.5-11q40 0 48 66l56-4q-3-58-30-90.5T385 709" glyph-name="Ntilde" unicode="Ñ"/><glyph d="M300-12q-56 0-102 23.5T118.5 79t-52 107.5T48 331q0 79 18.5 142t52 106 79.5 66 102 23q55 0 101.5-23t80-66 52-106T552 331q0-81-18.5-144.5T481.5 79t-80-67.5T300-12m0 73q37 0 68 18.5t52.5 53.5 33.5 85 12 113q0 62-12 111t-33.5 83-52.5 52-68 18q-38 0-68.5-18t-52-52-33.5-83-12-111q0-63 12-113t33.5-85 52-53.5T300 61m29 636L177 812l47 55 141-128z" glyph-name="Ograve" unicode="Ò"/><glyph d="M300-12q-56 0-102 23.5T118.5 79t-52 107.5T48 331q0 79 18.5 142t52 106 79.5 66 102 23q55 0 101.5-23t80-66 52-106T552 331q0-81-18.5-144.5T481.5 79t-80-67.5T300-12m0 73q37 0 68 18.5t52.5 53.5 33.5 85 12 113q0 62-12 111t-33.5 83-52.5 52-68 18q-38 0-68.5-18t-52-52-33.5-83-12-111q0-63 12-113t33.5-85 52-53.5T300 61m-29 636-36 42 141 128 47-55z" glyph-name="Oacute" unicode="Ó"/><glyph d="M300-12q-56 0-102 23.5T118.5 79t-52 107.5T48 331q0 79 18.5 142t52 106 79.5 66 102 23q55 0 101.5-23t80-66 52-106T552 331q0-81-18.5-144.5T481.5 79t-80-67.5T300-12m0 73q37 0 68 18.5t52.5 53.5 33.5 85 12 113q0 62-12 111t-33.5 83-52.5 52-68 18q-38 0-68.5-18t-52-52-33.5-83-12-111q0-63 12-113t33.5-85 52-53.5T300 61M188 699l-36 26 105 113h86l105-113-36-26-110 93h-4z" glyph-name="Ocircumflex" unicode="Ô"/><glyph d="M300-12q-56 0-102 23.5T118.5 79t-52 107.5T48 331q0 79 18.5 142t52 106 79.5 66 102 23q55 0 101.5-23t80-66 52-106T552 331q0-81-18.5-144.5T481.5 79t-80-67.5T300-12m0 73q37 0 68 18.5t52.5 53.5 33.5 85 12 113q0 62-12 111t-33.5 83-52.5 52-68 18q-38 0-68.5-18t-52-52-33.5-83-12-111q0-63 12-113t33.5-85 52-53.5T300 61m75 648q-28 0-48 11t-36.5 24.5-31 24.5-32.5 11q-19 0-32-17t-16-49l-56 4q3 57 30 90t72 33q28 0 48-11t36.5-24.5 31-24.5 32.5-11q40 0 48 66l56-4q-3-58-30-90.5T375 709" glyph-name="Otilde" unicode="Õ"/><glyph d="M300-12q-56 0-102 23.5T118.5 79t-52 107.5T48 331q0 79 18.5 142t52 106 79.5 66 102 23q55 0 101.5-23t80-66 52-106T552 331q0-81-18.5-144.5T481.5 79t-80-67.5T300-12m0 73q37 0 68 18.5t52.5 53.5 33.5 85 12 113q0 62-12 111t-33.5 83-52.5 52-68 18q-38 0-68.5-18t-52-52-33.5-83-12-111q0-63 12-113t33.5-85 52-53.5T300 61m-91 654q-22 0-36.5 14T158 766t14.5 36.5T209 816t36-13.5 14-36.5-14-37-36-14m182 0q-22 0-36 14t-14 37 14 36.5 36 13.5 36.5-13.5T442 766t-14.5-37-36.5-14" glyph-name="Odieresis" unicode="Ö"/><glyph d="m146 126-44 45 154 159-154 158 44 45 154-159 154 159 44-45-154-158 154-159-44-45-154 160z" glyph-name="multiply" unicode="×"/><glyph d="M300-12q-89 0-154 60L92-32 36 4l67 98q-26 43-40.5 100.5T48 331q0 79 18.5 142t52 106 79.5 66 102 23q87 0 152-57l52 77 56-36-64-94q27-42 41.5-99T552 331q0-81-18.5-144.5T481.5 79t-80-67.5T300-12M134 331q0-87 23-150l249 364q-44 50-106 50-38 0-68.5-18t-52-52-33.5-83-12-111M300 61q37 0 68 18.5t52.5 53.5 33.5 85 12 113q0 89-24 149L192 115q43-54 108-54" glyph-name="Oslash" unicode="Ø"/><glyph d="M301-12q-48 0-89 14t-70.5 45.5-46 80.5T79 248v408h84V246q0-51 10.5-86.5t29-57T246 71t55-10 55 10 44 31.5 29.5 57T440 246v410h81V248q0-71-16.5-120T459 47.5 389.5 2 301-12m28 709L177 812l47 55 141-128z" glyph-name="Ugrave" unicode="Ù"/><glyph d="M301-12q-48 0-89 14t-70.5 45.5-46 80.5T79 248v408h84V246q0-51 10.5-86.5t29-57T246 71t55-10 55 10 44 31.5 29.5 57T440 246v410h81V248q0-71-16.5-120T459 47.5 389.5 2 301-12m-30 709-36 42 141 128 47-55z" glyph-name="Uacute" unicode="Ú"/><glyph d="M301-12q-48 0-89 14t-70.5 45.5-46 80.5T79 248v408h84V246q0-51 10.5-86.5t29-57T246 71t55-10 55 10 44 31.5 29.5 57T440 246v410h81V248q0-71-16.5-120T459 47.5 389.5 2 301-12M188 699l-36 26 105 113h86l105-113-36-26-110 93h-4z" glyph-name="Ucircumflex" unicode="Û"/><glyph d="M301-12q-48 0-89 14t-70.5 45.5-46 80.5T79 248v408h84V246q0-51 10.5-86.5t29-57T246 71t55-10 55 10 44 31.5 29.5 57T440 246v410h81V248q0-71-16.5-120T459 47.5 389.5 2 301-12m-92 727q-22 0-36.5 14T158 766t14.5 36.5T209 816t36-13.5 14-36.5-14-37-36-14m182 0q-22 0-36 14t-14 37 14 36.5 36 13.5 36.5-13.5T442 766t-14.5-37-36.5-14" glyph-name="Udieresis" unicode="Ü"/><glyph d="M258 0v234L38 656h88l99-195q19-38 37-75.5t38-77.5h4l39 78 38 76 95 194h86L342 234V0zm13 697-36 42 141 128 47-55z" glyph-name="Yacute" unicode="Ý"/><glyph d="M101 0v656h84V546h118q54 0 99-10t76.5-33 49-59.5T545 353q0-52-17.5-90.5T478 199t-76.5-37-98.5-12H185V0zm84 218h107q87 0 128.5 32T462 353t-42.5 98T292 478H185z" glyph-name="Thorn" unicode="Þ"/><glyph d="M401-12q-42 0-77 12t-67 33l33 58q28-20 54-29.5t55-9.5q42 0 64.5 23.5T486 130q0 29-15 48t-37.5 33.5-48.5 27-48.5 29-37.5 39-15 57.5q0 34 14 58.5t31 47 31 46 14 55.5q0 37-22 61.5T288 657q-55 0-86.5-37.5T170 507V0H88v519q0 46 14 84t40 65 63 41.5 84 14.5q40 0 70.5-12t51.5-32.5 31.5-47T453 576q0-38-14-64.5T408 463t-31-42.5-14-46.5q0-24 15-40t37-29.5 48.5-26.5 48.5-31 37-44.5 15-65.5q0-32-11.5-59t-33-47T468-.5 401-12" glyph-name="germandbls" unicode="ß"/><glyph d="M246-12q-34 0-64 9.5t-52.5 27-35.5 43T81 126q0 41 19.5 71.5t62 52.5T272 286t161 22q-1 25-8 47t-22 38.5-39.5 26.5-59.5 10q-48 0-92-18.5T134 372l-32 56q18 12 42.5 24.5t52 22.5 58.5 16.5 63 6.5q100 0 148.5-54.5T515 298V0h-67l-7 66h-3q-41-32-90.5-55T246-12m22 66q42 0 82.5 18.5T433 126v128q-78-6-130.5-17t-84-26.5-44.5-35-13-43.5q0-21 9-35.5t23.5-24 34-14T268 54m73 514L184 721l58 56 142-168z" glyph-name="agrave" unicode="à"/><glyph d="M246-12q-34 0-64 9.5t-52.5 27-35.5 43T81 126q0 41 19.5 71.5t62 52.5T272 286t161 22q-1 25-8 47t-22 38.5-39.5 26.5-59.5 10q-48 0-92-18.5T134 372l-32 56q18 12 42.5 24.5t52 22.5 58.5 16.5 63 6.5q100 0 148.5-54.5T515 298V0h-67l-7 66h-3q-41-32-90.5-55T246-12m22 66q42 0 82.5 18.5T433 126v128q-78-6-130.5-17t-84-26.5-44.5-35-13-43.5q0-21 9-35.5t23.5-24 34-14T268 54m31 514-43 41 142 168 58-56z" glyph-name="aacute" unicode="á"/><glyph d="M246-12q-34 0-64 9.5t-52.5 27-35.5 43T81 126q0 41 19.5 71.5t62 52.5T272 286t161 22q-1 25-8 47t-22 38.5-39.5 26.5-59.5 10q-48 0-92-18.5T134 372l-32 56q18 12 42.5 24.5t52 22.5 58.5 16.5 63 6.5q100 0 148.5-54.5T515 298V0h-67l-7 66h-3q-41-32-90.5-55T246-12m22 66q42 0 82.5 18.5T433 126v128q-78-6-130.5-17t-84-26.5-44.5-35-13-43.5q0-21 9-35.5t23.5-24 34-14T268 54m-68 514-35 32 114 140h82l114-140-35-32-118 113h-4z" glyph-name="acircumflex" unicode="â"/><glyph d="M246-12q-34 0-64 9.5t-52.5 27-35.5 43T81 126q0 41 19.5 71.5t62 52.5T272 286t161 22q-1 25-8 47t-22 38.5-39.5 26.5-59.5 10q-48 0-92-18.5T134 372l-32 56q18 12 42.5 24.5t52 22.5 58.5 16.5 63 6.5q100 0 148.5-54.5T515 298V0h-67l-7 66h-3q-41-32-90.5-55T246-12m22 66q42 0 82.5 18.5T433 126v128q-78-6-130.5-17t-84-26.5-44.5-35-13-43.5q0-21 9-35.5t23.5-24 34-14T268 54m124 523q-27 0-46 13t-35 29-30.5 29-31.5 13q-23 0-34-22t-13-57l-55 3q1 29 7.5 54t18.5 43 30.5 28.5T248 721q27 0 46-13t35-29 30.5-29 32.5-13q22 0 33 22t13 57l55-4q-1-29-7.5-53.5T467 616t-30.5-28.5T392 577" glyph-name="atilde" unicode="ã"/><glyph d="M246-12q-34 0-64 9.5t-52.5 27-35.5 43T81 126q0 41 19.5 71.5t62 52.5T272 286t161 22q-1 25-8 47t-22 38.5-39.5 26.5-59.5 10q-48 0-92-18.5T134 372l-32 56q18 12 42.5 24.5t52 22.5 58.5 16.5 63 6.5q100 0 148.5-54.5T515 298V0h-67l-7 66h-3q-41-32-90.5-55T246-12m22 66q42 0 82.5 18.5T433 126v128q-78-6-130.5-17t-84-26.5-44.5-35-13-43.5q0-21 9-35.5t23.5-24 34-14T268 54m-45 534q-24 0-39.5 16T168 644q0 23 15.5 39.5T223 700t39.5-16.5T278 644q0-24-15.5-40T223 588m194 0q-24 0-39.5 16T362 644q0 23 15.5 39.5T417 700t39.5-16.5T472 644q0-24-15.5-40T417 588" glyph-name="adieresis" unicode="ä"/><glyph d="M246-12q-34 0-64 9.5t-52.5 27-35.5 43T81 126q0 41 19.5 71.5t62 52.5T272 286t161 22q-1 25-8 47t-22 38.5-39.5 26.5-59.5 10q-48 0-92-18.5T134 372l-32 56q18 12 42.5 24.5t52 22.5 58.5 16.5 63 6.5q100 0 148.5-54.5T515 298V0h-67l-7 66h-3q-41-32-90.5-55T246-12m22 66q42 0 82.5 18.5T433 126v128q-78-6-130.5-17t-84-26.5-44.5-35-13-43.5q0-21 9-35.5t23.5-24 34-14T268 54m52 515q-52 0-81 27.5T210 665t29 68.5 81 27.5 81-27.5 29-68.5-29-68.5-81-27.5m0 37q24 0 40.5 17t16.5 42q0 26-16.5 42.5T320 724t-40.5-16.5T263 665q0-25 16.5-42t40.5-17" glyph-name="aring" unicode="å"/><glyph d="M145-12q-56 0-92 35t-36 97q0 74 58.5 119.5T266 302q-2 71-26 99.5T178 430q-30 0-60.5-12T64 390l-31 56q30 20 69.5 36t82.5 16q44 0 75-23t48-77q25 54 62 77t78 23q38 0 66-18t46.5-48.5T588 361t9-85q0-14-1-28.5t-3-27.5H332q4-77 36-121t89-44q28 0 51.5 9T552 87l30-56Q557 13 524.5.5T454-12q-51 0-88.5 22.5T304 75q-35-42-74.5-64.5T145-12m22 66q28 0 59 17.5t57 51.5q-17 54-17 119v7q-51-8-84-19.5T129 203t-28-34-8-41q0-35 20.5-54.5T167 54m276 379q-38 0-70-34t-40-115h197q-4 149-87 149" glyph-name="ae" unicode="æ"/><glyph d="M346-12q-57 0-105.5 17T156 54.5t-56 80T80 242q0 61 21.5 108.5T160 431t86.5 50T351 498q60 0 103.5-21t73.5-50l-41-53q-30 26-62.5 41T354 430q-42 0-77-13.5T217.5 378 179 318.5 165 242t13.5-76 38-58.5 59-38T352 56q45 0 82.5 17.5T502 117l37-53q-41-36-90-56T346-12m-87-214-8 40q63 5 86 16.5t23 33.5q0 20-17 31t-60 17l40 96h54l-26-72q35-8 54-24t19-47q0-44-42.5-65.5T259-226" glyph-name="ccedilla" unicode="ç"/><glyph d="M330-12q-55 0-102.5 17t-83 50-56 80.5T68 244q0 59 20.5 106t55 80 79 50.5T316 498q52 0 93.5-16.5t70-46.5 43.5-72 15-93q0-14-1-27t-3-23H151q8-83 60.5-124.5T340 54q44 0 79.5 12.5T488 100l30-54q-36-24-82.5-41T330-12m-12 445q-30 0-57.5-10T211 394.5 174 348t-21-64h310q-5 75-43.5 112T318 433m19 135L180 721l58 56 142-168z" glyph-name="egrave" unicode="è"/><glyph d="M330-12q-55 0-102.5 17t-83 50-56 80.5T68 244q0 59 20.5 106t55 80 79 50.5T316 498q52 0 93.5-16.5t70-46.5 43.5-72 15-93q0-14-1-27t-3-23H151q8-83 60.5-124.5T340 54q44 0 79.5 12.5T488 100l30-54q-36-24-82.5-41T330-12m-12 445q-30 0-57.5-10T211 394.5 174 348t-21-64h310q-5 75-43.5 112T318 433m-23 135-43 41 142 168 58-56z" glyph-name="eacute" unicode="é"/><glyph d="M330-12q-55 0-102.5 17t-83 50-56 80.5T68 244q0 59 20.5 106t55 80 79 50.5T316 498q52 0 93.5-16.5t70-46.5 43.5-72 15-93q0-14-1-27t-3-23H151q8-83 60.5-124.5T340 54q44 0 79.5 12.5T488 100l30-54q-36-24-82.5-41T330-12m-12 445q-30 0-57.5-10T211 394.5 174 348t-21-64h310q-5 75-43.5 112T318 433M196 568l-35 32 114 140h82l114-140-35-32-118 113h-4z" glyph-name="ecircumflex" unicode="ê"/><glyph d="M330-12q-55 0-102.5 17t-83 50-56 80.5T68 244q0 59 20.5 106t55 80 79 50.5T316 498q52 0 93.5-16.5t70-46.5 43.5-72 15-93q0-14-1-27t-3-23H151q8-83 60.5-124.5T340 54q44 0 79.5 12.5T488 100l30-54q-36-24-82.5-41T330-12m-12 445q-30 0-57.5-10T211 394.5 174 348t-21-64h310q-5 75-43.5 112T318 433m-99 155q-24 0-39.5 16T164 644q0 23 15.5 39.5T219 700t39.5-16.5T274 644q0-24-15.5-40T219 588m194 0q-24 0-39.5 16T358 644q0 23 15.5 39.5T413 700t39.5-16.5T468 644q0-24-15.5-40T413 588" glyph-name="edieresis" unicode="ë"/><glyph d="M316 0v419H90v67h308V0zm53 568L212 721l58 56 142-168z" glyph-name="igrave" unicode="ì"/><glyph d="M316 0v419H90v67h308V0zm11 568-43 41 142 168 58-56z" glyph-name="iacute" unicode="í"/><glyph d="M316 0v419H90v67h308V0zm-88 568-35 32 114 140h82l114-140-35-32-118 113h-4z" glyph-name="icircumflex" unicode="î"/><glyph d="M316 0v419H90v67h308V0zm-65 588q-24 0-39.5 16T196 644q0 23 15.5 39.5T251 700t39.5-16.5T306 644q0-24-15.5-40T251 588m194 0q-24 0-39.5 16T390 644q0 23 15.5 39.5T445 700t39.5-16.5T500 644q0-24-15.5-40T445 588" glyph-name="idieresis" unicode="ï"/><glyph d="M298-12q-47 0-90 16t-76 46.5-52.5 74T60 222q0 51 17 92.5t47.5 71 72 45.5 91.5 16q47 0 89-21t70-59q-14 66-42.5 116T332 572l-152-78-30 52 130 66q-26 18-54.5 34T165 678l38 52q38-18 74.5-38.5T347 646l137 70 30-50-118-61q63-61 101.5-145T536 257q0-60-16.5-109.5t-47.5-85-75-55T298-12m2 68q40 0 69.5 14.5t49 41 29 62.5 9.5 80v22l-1 22q-35 47-76 66t-80 19q-40 0-70.5-12t-51-34-31-51.5T137 222q0-38 13-68.5t35-52T237 68t63-12" glyph-name="eth" unicode="ð"/><glyph d="M93 0v486h68l7-83h4q38 41 82 68t101 27q87 0 127.5-49.5T523 302V0h-82v291q0 69-26 102.5T329 427q-22 0-40.5-5.5T252 405t-37-27.5-40-38.5V0zm297 577q-27 0-46 13t-35 29-30.5 29-31.5 13q-23 0-34-22t-13-57l-55 3q1 29 7.5 54t18.5 43 30.5 28.5T246 721q27 0 46-13t35-29 30.5-29 32.5-13q22 0 33 22t13 57l55-4q-1-29-7.5-53.5T465 616t-30.5-28.5T390 577" glyph-name="ntilde" unicode="ñ"/><glyph d="M300-12q-48 0-91.5 17T132 54.5t-52.5 80T60 242q0 61 19.5 108.5T132 431t76.5 50 91.5 17 91.5-17 76.5-50 52.5-80.5T540 242q0-60-19.5-107.5t-52.5-80T391.5 5 300-12m0 68q35 0 63.5 13.5t49 38T444 166t11 76-11 76.5-31.5 59.5-49 38.5T300 430t-63.5-13.5-49-38.5-31.5-59.5-11-76.5 11-76 31.5-58.5 49-38T300 56m21 512L164 721l58 56 142-168z" glyph-name="ograve" unicode="ò"/><glyph d="M300-12q-48 0-91.5 17T132 54.5t-52.5 80T60 242q0 61 19.5 108.5T132 431t76.5 50 91.5 17 91.5-17 76.5-50 52.5-80.5T540 242q0-60-19.5-107.5t-52.5-80T391.5 5 300-12m0 68q35 0 63.5 13.5t49 38T444 166t11 76-11 76.5-31.5 59.5-49 38.5T300 430t-63.5-13.5-49-38.5-31.5-59.5-11-76.5 11-76 31.5-58.5 49-38T300 56m-21 512-43 41 142 168 58-56z" glyph-name="oacute" unicode="ó"/><glyph d="M300-12q-48 0-91.5 17T132 54.5t-52.5 80T60 242q0 61 19.5 108.5T132 431t76.5 50 91.5 17 91.5-17 76.5-50 52.5-80.5T540 242q0-60-19.5-107.5t-52.5-80T391.5 5 300-12m0 68q35 0 63.5 13.5t49 38T444 166t11 76-11 76.5-31.5 59.5-49 38.5T300 430t-63.5-13.5-49-38.5-31.5-59.5-11-76.5 11-76 31.5-58.5 49-38T300 56M180 568l-35 32 114 140h82l114-140-35-32-118 113h-4z" glyph-name="ocircumflex" unicode="ô"/><glyph d="M300-12q-48 0-91.5 17T132 54.5t-52.5 80T60 242q0 61 19.5 108.5T132 431t76.5 50 91.5 17 91.5-17 76.5-50 52.5-80.5T540 242q0-60-19.5-107.5t-52.5-80T391.5 5 300-12m0 68q35 0 63.5 13.5t49 38T444 166t11 76-11 76.5-31.5 59.5-49 38.5T300 430t-63.5-13.5-49-38.5-31.5-59.5-11-76.5 11-76 31.5-58.5 49-38T300 56m72 521q-27 0-46 13t-35 29-30.5 29-31.5 13q-23 0-34-22t-13-57l-55 3q1 29 7.5 54t18.5 43 30.5 28.5T228 721q27 0 46-13t35-29 30.5-29 32.5-13q22 0 33 22t13 57l55-4q-1-29-7.5-53.5T447 616t-30.5-28.5T372 577" glyph-name="otilde" unicode="õ"/><glyph d="M300-12q-48 0-91.5 17T132 54.5t-52.5 80T60 242q0 61 19.5 108.5T132 431t76.5 50 91.5 17 91.5-17 76.5-50 52.5-80.5T540 242q0-60-19.5-107.5t-52.5-80T391.5 5 300-12m0 68q35 0 63.5 13.5t49 38T444 166t11 76-11 76.5-31.5 59.5-49 38.5T300 430t-63.5-13.5-49-38.5-31.5-59.5-11-76.5 11-76 31.5-58.5 49-38T300 56m-97 532q-24 0-39.5 16T148 644q0 23 15.5 39.5T203 700t39.5-16.5T258 644q0-24-15.5-40T203 588m194 0q-24 0-39.5 16T342 644q0 23 15.5 39.5T397 700t39.5-16.5T452 644q0-24-15.5-40T397 588" glyph-name="odieresis" unicode="ö"/><glyph d="M300 456q-23 0-38.5 15T246 510q0 23 15.5 38t38.5 15 38.5-15 15.5-38q0-24-15.5-39T300 456m0-360q-23 0-38.5 15T246 150q0 23 15.5 38t38.5 15 38.5-15 15.5-38q0-24-15.5-39T300 96M85 299v62h430v-62z" glyph-name="divide" unicode="÷"/><glyph d="M300-12q-79 0-140 43l-52-61-46 42 53 62q-26 32-40.5 74T60 242q0 61 19.5 108.5T132 431t76.5 50 91.5 17q79 0 140-43l52 61 46-42-53-62q26-32 40.5-74.5T540 242q0-60-19.5-107.5t-52.5-80T391.5 5 300-12M145 242q0-60 23-106l224 263q-38 33-92 33-35 0-63.5-14t-49-39-31.5-60-11-77M300 54q35 0 63.5 14t49 38.5 31.5 59 11 76.5q0 63-23 107L207 86q19-15 42.5-23.5T300 54" glyph-name="oslash" unicode="ø"/><glyph d="M246-12q-88 0-128.5 49.5T77 184v302h83V195q0-69 25.5-102.5T272 59q42 0 76 21.5t75 68.5v337h82V0h-67l-7 85h-4q-37-43-80.5-70T246-12m71 580L160 721l58 56 142-168z" glyph-name="ugrave" unicode="ù"/><glyph d="M246-12q-88 0-128.5 49.5T77 184v302h83V195q0-69 25.5-102.5T272 59q42 0 76 21.5t75 68.5v337h82V0h-67l-7 85h-4q-37-43-80.5-70T246-12m29 580-43 41 142 168 58-56z" glyph-name="uacute" unicode="ú"/><glyph d="M246-12q-88 0-128.5 49.5T77 184v302h83V195q0-69 25.5-102.5T272 59q42 0 76 21.5t75 68.5v337h82V0h-67l-7 85h-4q-37-43-80.5-70T246-12m-70 580-35 32 114 140h82l114-140-35-32-118 113h-4z" glyph-name="ucircumflex" unicode="û"/><glyph d="M246-12q-88 0-128.5 49.5T77 184v302h83V195q0-69 25.5-102.5T272 59q42 0 76 21.5t75 68.5v337h82V0h-67l-7 85h-4q-37-43-80.5-70T246-12m-47 600q-24 0-39.5 16T144 644q0 23 15.5 39.5T199 700t39.5-16.5T254 644q0-24-15.5-40T199 588m194 0q-24 0-39.5 16T338 644q0 23 15.5 39.5T393 700t39.5-16.5T448 644q0-24-15.5-40T393 588" glyph-name="udieresis" unicode="ü"/><glyph d="M131-209q-36 0-64 10l17 65q10-3 21.5-5t22.5-2q51 0 83 29.5T261-37l15 36L49 486h83l119-269q14-32 29.5-69T311 76h4q13 35 26.5 71.5T367 217l106 269h78L337-40q-14-36-32-67t-43-53.5-57.5-35.5-73.5-13m152 777-43 41 142 168 58-56z" glyph-name="yacute" unicode="ý"/><glyph d="M93-205v917h82V511l-3-87h3q34 34 76.5 54t85.5 20q49 0 87-17.5t63.5-50 39-78T540 250q0-62-18.5-110.5t-49-82.5T402 5.5 319-12q-36 0-74 17t-70 46h-3l3-92v-164zM305 57q32 0 59.5 13.5t47.5 38 31.5 60.5 11.5 81q0 80-32.5 129.5T317 429q-32 0-68-17.5T175 356V114q35-31 69.5-44T305 57" glyph-name="thorn" unicode="þ"/><glyph d="M131-209q-36 0-64 10l17 65q10-3 21.5-5t22.5-2q51 0 83 29.5T261-37l15 36L49 486h83l119-269q14-32 29.5-69T311 76h4q13 35 26.5 71.5T367 217l106 269h78L337-40q-14-36-32-67t-43-53.5-57.5-35.5-73.5-13m76 797q-24 0-39.5 16T152 644q0 23 15.5 39.5T207 700t39.5-16.5T262 644q0-24-15.5-40T207 588m194 0q-24 0-39.5 16T346 644q0 23 15.5 39.5T401 700t39.5-16.5T456 644q0-24-15.5-40T401 588" glyph-name="ydieresis" unicode="ÿ"/><glyph d="m232 367-31-100h196l-31 100q-17 55-33.5 109.5T301 588h-4q-16-57-32-111.5T232 367M32 0l221 656h94L568 0h-88l-62 200H180L117 0zm134 735v57h268v-57z" glyph-name="Amacron" unicode="Ā"/><glyph d="M246-12q-34 0-64 9.5t-52.5 27-35.5 43T81 126q0 41 19.5 71.5t62 52.5T272 286t161 22q-1 25-8 47t-22 38.5-39.5 26.5-59.5 10q-48 0-92-18.5T134 372l-32 56q18 12 42.5 24.5t52 22.5 58.5 16.5 63 6.5q100 0 148.5-54.5T515 298V0h-67l-7 66h-3q-41-32-90.5-55T246-12m22 66q42 0 82.5 18.5T433 126v128q-78-6-130.5-17t-84-26.5-44.5-35-13-43.5q0-21 9-35.5t23.5-24 34-14T268 54m-81 547v57h266v-57z" glyph-name="amacron" unicode="ā"/><glyph d="m232 367-31-100h196l-31 100q-17 55-33.5 109.5T301 588h-4q-16-57-32-111.5T232 367M32 0l221 656h94L568 0h-88l-62 200H180L117 0zm268 705q-35 0-61 10.5t-44 28-28 41-13 49.5l50 8q6-35 29.5-59.5T300 758t66.5 24.5T396 842l50-8q-3-26-13-49.5t-28-41-44-28-61-10.5" glyph-name="Abreve" unicode="Ă"/><glyph d="M246-12q-34 0-64 9.5t-52.5 27-35.5 43T81 126q0 41 19.5 71.5t62 52.5T272 286t161 22q-1 25-8 47t-22 38.5-39.5 26.5-59.5 10q-48 0-92-18.5T134 372l-32 56q18 12 42.5 24.5t52 22.5 58.5 16.5 63 6.5q100 0 148.5-54.5T515 298V0h-67l-7 66h-3q-41-32-90.5-55T246-12m22 66q42 0 82.5 18.5T433 126v128q-78-6-130.5-17t-84-26.5-44.5-35-13-43.5q0-21 9-35.5t23.5-24 34-14T268 54m52 517q-40 0-69 13t-47.5 34.5-28 48.5-11.5 55l51 8q3-19 10.5-37.5T246 659t31.5-24 42.5-9 42.5 9 31.5 24 20.5 33.5T425 730l51-8q-2-28-11.5-55T436 618.5 388.5 584 320 571" glyph-name="abreve" unicode="ă"/><glyph d="M515-225q-44 0-73.5 22.5T412-134q0 23 8 43.5t20.5 37 28 30T499 0h-19l-62 200H180L117 0H32l221 656h94L568 0q-38-17-64.5-48T477-116q0-26 16-38.5t38-12.5q17 0 29 6.5t21 14.5l26-43q-17-15-40-25.5T515-225M232 367l-31-100h196l-31 100q-17 55-33.5 109.5T301 588h-4q-16-57-32-111.5T232 367" glyph-name="Aogonek" unicode="Ą"/><glyph d="M456-225q-44 0-73.5 22.5T353-132q0 45 28 79t67 58l-7 61h-3q-41-32-90.5-55T246-12q-34 0-64 9.5t-52.5 27-35.5 43T81 126q0 41 19.5 71.5t62 52.5T272 286t161 22q-1 25-8 47t-22 38.5-39.5 26.5-59.5 10q-48 0-92-18.5T134 372l-32 56q18 12 42.5 24.5t52 22.5 58.5 16.5 63 6.5q100 0 148.5-54.5T515 298V0q-54-24-77.5-54.5T414-116q0-29 18-42t41-13q17 0 30 6t22 15l24-39q-17-17-40.5-26.5T456-225M268 54q42 0 82.5 18.5T433 126v128q-78-6-130.5-17t-84-26.5-44.5-35-13-43.5q0-21 9-35.5t23.5-24 34-14T268 54" glyph-name="aogonek" unicode="ą"/><glyph d="M351-12q-61 0-113 23t-90.5 66.5-60.5 107T65 328q0 79 22 142t61 107 93 67.5T359 668q59 0 104.5-24t74.5-56l-47-53q-26 27-58 43.5T359 595q-47 0-85.5-18.5t-65.5-53-42-83.5-15-110q0-62 15-111.5t42-84.5 65.5-54T359 61q45 0 80.5 19t67.5 54l47-51q-39-45-88-70T351-12m-34 709-36 42 141 128 47-55z" glyph-name="Cacute" unicode="Ć"/><glyph d="M346-12q-57 0-105.5 17T156 54.5t-56 80T80 242q0 61 21.5 108.5T160 431t86.5 50T351 498q60 0 103.5-21t73.5-50l-41-53q-30 26-62.5 41T354 430q-42 0-77-13.5T217.5 378 179 318.5 165 242t13.5-76 38-58.5 59-38T352 56q45 0 82.5 17.5T502 117l37-53q-41-36-90-56T346-12m-21 580-43 41 142 168 58-56z" glyph-name="cacute" unicode="ć"/><glyph d="M351-12q-61 0-113 23t-90.5 66.5-60.5 107T65 328q0 79 22 142t61 107 93 67.5T359 668q59 0 104.5-24t74.5-56l-47-53q-26 27-58 43.5T359 595q-47 0-85.5-18.5t-65.5-53-42-83.5-15-110q0-62 15-111.5t42-84.5 65.5-54T359 61q45 0 80.5 19t67.5 54l47-51q-39-45-88-70T351-12M234 699l-36 26 105 113h86l105-113-36-26-110 93h-4z" glyph-name="Ccircumflex" unicode="Ĉ"/><glyph d="M346-12q-57 0-105.5 17T156 54.5t-56 80T80 242q0 61 21.5 108.5T160 431t86.5 50T351 498q60 0 103.5-21t73.5-50l-41-53q-30 26-62.5 41T354 430q-42 0-77-13.5T217.5 378 179 318.5 165 242t13.5-76 38-58.5 59-38T352 56q45 0 82.5 17.5T502 117l37-53q-41-36-90-56T346-12M226 568l-35 32 114 140h82l114-140-35-32-118 113h-4z" glyph-name="ccircumflex" unicode="ĉ"/><glyph d="M351-12q-61 0-113 23t-90.5 66.5-60.5 107T65 328q0 79 22 142t61 107 93 67.5T359 668q59 0 104.5-24t74.5-56l-47-53q-26 27-58 43.5T359 595q-47 0-85.5-18.5t-65.5-53-42-83.5-15-110q0-62 15-111.5t42-84.5 65.5-54T359 61q45 0 80.5 19t67.5 54l47-51q-39-45-88-70T351-12m-5 726q-25 0-42 15.5T287 771q0 25 17 40.5t42 15.5 42-15.5 17-40.5q0-26-17-41.5T346 714" glyph-name="Cdotaccent" unicode="Ċ"/><glyph d="M346-12q-57 0-105.5 17T156 54.5t-56 80T80 242q0 61 21.5 108.5T160 431t86.5 50T351 498q60 0 103.5-21t73.5-50l-41-53q-30 26-62.5 41T354 430q-42 0-77-13.5T217.5 378 179 318.5 165 242t13.5-76 38-58.5 59-38T352 56q45 0 82.5 17.5T502 117l37-53q-41-36-90-56T346-12m0 600q-28 0-47 17.5T280 652t19 46.5 47 17.5 47-17.5 19-46.5-19-46.5-47-17.5" glyph-name="cdotaccent" unicode="ċ"/><glyph d="M351-12q-61 0-113 23t-90.5 66.5-60.5 107T65 328q0 79 22 142t61 107 93 67.5T359 668q59 0 104.5-24t74.5-56l-47-53q-26 27-58 43.5T359 595q-47 0-85.5-18.5t-65.5-53-42-83.5-15-110q0-62 15-111.5t42-84.5 65.5-54T359 61q45 0 80.5 19t67.5 54l47-51q-39-45-88-70T351-12m-48 718L198 819l36 26 110-92h4l110 92 36-26-105-113z" glyph-name="Ccaron" unicode="Č"/><glyph d="M346-12q-57 0-105.5 17T156 54.5t-56 80T80 242q0 61 21.5 108.5T160 431t86.5 50T351 498q60 0 103.5-21t73.5-50l-41-53q-30 26-62.5 41T354 430q-42 0-77-13.5T217.5 378 179 318.5 165 242t13.5-76 38-58.5 59-38T352 56q45 0 82.5 17.5T502 117l37-53q-41-36-90-56T346-12m-41 586L191 714l35 32 118-113h4l118 113 35-32-114-140z" glyph-name="ccaron" unicode="č"/><glyph d="M87 0v656h162q149 0 226.5-84T553 331 475.5 87 253 0zm83 68h73q113 0 168.5 69T467 331t-55.5 191T243 588h-73zm87 638L152 819l36 26 110-92h4l110 92 36-26-105-113z" glyph-name="Dcaron" unicode="Ď"/><glyph d="M254-12q-45 0-82 17t-63 49.5T68.5 134 54 242q0 59 17.5 106.5T118 429t67 51 79 18q42 0 74-17t64-46h3l-5 90v187h79V0h-64l-7 64h-3q-29-30-68-53t-83-23m17 69q65 0 129 73v242q-32 30-61 43.5T280 429t-56.5-13.5-46-38-31-58.5-11.5-76q0-88 36-137t100-49m277 491-3 268h74v-81l-14-187z" glyph-name="dcaron" unicode="ď"/><glyph d="M87 0v314H12v56l75 6v280h162q149 0 226.5-84T553 331 475.5 87 253 0zm83 68h73q112 0 167.5 69T466 331t-55.5 191T243 588h-73V376h144v-62H170z" glyph-name="Dcroat" unicode="Đ"/><glyph d="M271-12q-48 0-86.5 16T118 51.5 75 128 60 232q0 57 18.5 102.5t49 77.5 70.5 49 83 17q45 0 79-17t66-46h3l-4 90v57H250v64h175v86h82v-86h73v-58l-73-6V0h-68l-7 64h-3q-30-31-71.5-53.5T271-12m17 69q72 0 137 73v222q-33 31-64.5 44T298 409q-32 0-60-13t-48.5-36-32.5-55.5-12-71.5q0-83 37.5-129.5T288 57" glyph-name="dcroat" unicode="đ"/><glyph d="M114 0v656h406v-70H198V380h272v-71H198V71h332V0zm83 735v57h268v-57z" glyph-name="Emacron" unicode="Ē"/><glyph d="M330-12q-55 0-102.5 17t-83 50-56 80.5T68 244q0 59 20.5 106t55 80 79 50.5T316 498q52 0 93.5-16.5t70-46.5 43.5-72 15-93q0-14-1-27t-3-23H151q8-83 60.5-124.5T340 54q44 0 79.5 12.5T488 100l30-54q-36-24-82.5-41T330-12m-12 445q-30 0-57.5-10T211 394.5 174 348t-21-64h310q-5 75-43.5 112T318 433M183 601v57h266v-57z" glyph-name="emacron" unicode="ē"/><glyph d="M114 0v656h406v-70H198V380h272v-71H198V71h332V0zm217 705q-35 0-61 10.5t-44 28-28 41-13 49.5l50 8q6-35 29.5-59.5T331 758t66.5 24.5T427 842l50-8q-3-26-13-49.5t-28-41-44-28-61-10.5" glyph-name="Ebreve" unicode="Ĕ"/><glyph d="M330-12q-55 0-102.5 17t-83 50-56 80.5T68 244q0 59 20.5 106t55 80 79 50.5T316 498q52 0 93.5-16.5t70-46.5 43.5-72 15-93q0-14-1-27t-3-23H151q8-83 60.5-124.5T340 54q44 0 79.5 12.5T488 100l30-54q-36-24-82.5-41T330-12m-12 445q-30 0-57.5-10T211 394.5 174 348t-21-64h310q-5 75-43.5 112T318 433m-2 138q-40 0-69 13t-47.5 34.5-28 48.5-11.5 55l51 8q3-19 10.5-37.5T242 659t31.5-24 42.5-9 42.5 9 31.5 24 20.5 33.5T421 730l51-8q-2-28-11.5-55T432 618.5 384.5 584 316 571" glyph-name="ebreve" unicode="ĕ"/><glyph d="M114 0v656h406v-70H198V380h272v-71H198V71h332V0zm217 714q-25 0-42 15.5T272 771q0 25 17 40.5t42 15.5 42-15.5 17-40.5q0-26-17-41.5T331 714" glyph-name="Edotaccent" unicode="Ė"/><glyph d="M330-12q-55 0-102.5 17t-83 50-56 80.5T68 244q0 59 20.5 106t55 80 79 50.5T316 498q52 0 93.5-16.5t70-46.5 43.5-72 15-93q0-14-1-27t-3-23H151q8-83 60.5-124.5T340 54q44 0 79.5 12.5T488 100l30-54q-36-24-82.5-41T330-12m-12 445q-30 0-57.5-10T211 394.5 174 348t-21-64h310q-5 75-43.5 112T318 433m-2 155q-28 0-47 17.5T250 652t19 46.5 47 17.5 47-17.5 19-46.5-19-46.5-47-17.5" glyph-name="edotaccent" unicode="ė"/><glyph d="M462-225q-45 0-74 22.5T359-134q0 45 26.5 79.5T445 0H115v656h405v-70H199V380h271v-71H199V71h331V0h-4q-19-3-37.5-14t-33-27T432-76.5t-9-39.5q0-26 17-38.5t38-12.5q16 0 28 6.5t22 14.5l25-43q-17-15-39.5-25.5T462-225" glyph-name="Eogonek" unicode="Ę"/><glyph d="M422-225q-45 0-74 22.5T319-132q0 40 21.5 71T395-1q-26-9-41.5-10T330-12q-55 0-102.5 17t-83 50-56 80T68 242t20.5 107.5 55 80.5 79 50.5T316 498q52 0 93.5-16.5t70-46.5 43.5-72 15-93q0-14-1-27t-3-23H151q8-83 60.5-124.5T340 54q44 0 79.5 12.5T488 100l30-54q-38-27-64.5-48.5t-43-40T387-79t-7-37q0-28 18-41.5t41-13.5q17 0 30 6t23 15l24-39q-18-17-41.5-26.5T422-225M318 433q-30 0-57.5-10T211 394.5 174 348t-21-64h310q-5 75-43.5 112T318 433" glyph-name="eogonek" unicode="ę"/><glyph d="M114 0v656h406v-70H198V380h272v-71H198V71h332V0zm174 706L183 819l36 26 110-92h4l110 92 36-26-105-113z" glyph-name="Ecaron" unicode="Ě"/><glyph d="M330-12q-55 0-102.5 17t-83 50-56 80.5T68 244q0 59 20.5 106t55 80 79 50.5T316 498q52 0 93.5-16.5t70-46.5 43.5-72 15-93q0-14-1-27t-3-23H151q8-83 60.5-124.5T340 54q44 0 79.5 12.5T488 100l30-54q-36-24-82.5-41T330-12m-12 445q-30 0-57.5-10T211 394.5 174 348t-21-64h310q-5 75-43.5 112T318 433m-43 141L161 714l35 32 118-113h4l118 113 35-32-114-140z" glyph-name="ecaron" unicode="ě"/><glyph d="M337-12q-62 0-114 23t-90 66.5-59 107T53 328q0 79 21.5 142.5t60 107 92 67T344 668q33 0 60-7t49.5-18.5 40-25.5 31.5-29l-47-53q-24 26-55 43t-79 17q-46 0-83.5-18.5t-64.5-53-41.5-83.5T140 330q0-62 13.5-111.5t39-84.5T256 80t86-19q35 0 65 10.5t49 28.5v171H325v69h208V64q-31-32-81.5-54T337-12M218 699l-36 26 105 113h86l105-113-36-26-110 93h-4z" glyph-name="Gcircumflex" unicode="Ĝ"/><glyph d="M296-224q-107 0-165.5 35T72-89q0 29 20.5 57T152 19v4q-20 11-35 30t-15 50q0 23 15 47.5t43 43.5v4q-25 19-42.5 50.5T100 324q0 40 15.5 72t41.5 54.5 60.5 35T291 498q40 0 72-12h201v-67H438q17-17 29-43t12-55q0-39-14.5-70t-40-52.5-60-33T291 154q-19 0-40.5 4.5T209 172q-38-24-38-56 0-29 26.5-42.5T272 60h109q94 0 139.5-26T566-54q0-34-19-65t-54-54-85-37-112-14m-5 433q47 0 79.5 31t32.5 84q0 25-9 46t-24 36-35.5 23.5T291 438t-43.5-8.5T212 406t-24-36-9-46q0-53 33-84t79-31m11-373q42 0 76 8t58 21.5 36.5 31T485-67q0 35-27.5 47T374-8h-95q-21 0-39.5 1.5T205 0q-35-19-48.5-39.5T143-81q0-38 40.5-60.5T302-164M187 568l-35 32 114 140h82l114-140-35-32-118 113h-4z" glyph-name="gcircumflex" unicode="ĝ"/><glyph d="M337-12q-62 0-114 23t-90 66.5-59 107T53 328q0 79 21.5 142.5t60 107 92 67T344 668q33 0 60-7t49.5-18.5 40-25.5 31.5-29l-47-53q-24 26-55 43t-79 17q-46 0-83.5-18.5t-64.5-53-41.5-83.5T140 330q0-62 13.5-111.5t39-84.5T256 80t86-19q35 0 65 10.5t49 28.5v171H325v69h208V64q-31-32-81.5-54T337-12m-7 717q-35 0-61 10.5t-44 28-28 41-13 49.5l50 8q6-35 29.5-59.5T330 758t66.5 24.5T426 842l50-8q-3-26-13-49.5t-28-41-44-28-61-10.5" glyph-name="Gbreve" unicode="Ğ"/><glyph d="M296-224q-107 0-165.5 35T72-89q0 29 20.5 57T152 19v4q-20 11-35 30t-15 50q0 23 15 47.5t43 43.5v4q-25 19-42.5 50.5T100 324q0 40 15.5 72t41.5 54.5 60.5 35T291 498q40 0 72-12h201v-67H438q17-17 29-43t12-55q0-39-14.5-70t-40-52.5-60-33T291 154q-19 0-40.5 4.5T209 172q-38-24-38-56 0-29 26.5-42.5T272 60h109q94 0 139.5-26T566-54q0-34-19-65t-54-54-85-37-112-14m-5 433q47 0 79.5 31t32.5 84q0 25-9 46t-24 36-35.5 23.5T291 438t-43.5-8.5T212 406t-24-36-9-46q0-53 33-84t79-31m11-373q42 0 76 8t58 21.5 36.5 31T485-67q0 35-27.5 47T374-8h-95q-21 0-39.5 1.5T205 0q-35-19-48.5-39.5T143-81q0-38 40.5-60.5T302-164m5 735q-40 0-69 13t-47.5 34.5-28 48.5-11.5 55l51 8q3-19 10.5-37.5T233 659t31.5-24 42.5-9 42.5 9 31.5 24 20.5 33.5T412 730l51-8q-2-28-11.5-55T423 618.5 375.5 584 307 571" glyph-name="gbreve" unicode="ğ"/><glyph d="M337-12q-62 0-114 23t-90 66.5-59 107T53 328q0 79 21.5 142.5t60 107 92 67T344 668q33 0 60-7t49.5-18.5 40-25.5 31.5-29l-47-53q-24 26-55 43t-79 17q-46 0-83.5-18.5t-64.5-53-41.5-83.5T140 330q0-62 13.5-111.5t39-84.5T256 80t86-19q35 0 65 10.5t49 28.5v171H325v69h208V64q-31-32-81.5-54T337-12m-7 726q-25 0-42 15.5T271 771q0 25 17 40.5t42 15.5 42-15.5 17-40.5q0-26-17-41.5T330 714" glyph-name="Gdotaccent" unicode="Ġ"/><glyph d="M296-224q-107 0-165.5 35T72-89q0 29 20.5 57T152 19v4q-20 11-35 30t-15 50q0 23 15 47.5t43 43.5v4q-25 19-42.5 50.5T100 324q0 40 15.5 72t41.5 54.5 60.5 35T291 498q40 0 72-12h201v-67H438q17-17 29-43t12-55q0-39-14.5-70t-40-52.5-60-33T291 154q-19 0-40.5 4.5T209 172q-38-24-38-56 0-29 26.5-42.5T272 60h109q94 0 139.5-26T566-54q0-34-19-65t-54-54-85-37-112-14m-5 433q47 0 79.5 31t32.5 84q0 25-9 46t-24 36-35.5 23.5T291 438t-43.5-8.5T212 406t-24-36-9-46q0-53 33-84t79-31m11-373q42 0 76 8t58 21.5 36.5 31T485-67q0 35-27.5 47T374-8h-95q-21 0-39.5 1.5T205 0q-35-19-48.5-39.5T143-81q0-38 40.5-60.5T302-164m5 752q-28 0-47 17.5T241 652t19 46.5 47 17.5 47-17.5 19-46.5-19-46.5-47-17.5" glyph-name="gdotaccent" unicode="ġ"/><glyph d="M337-12q-62 0-114 23t-90 66.5-59 107T53 328q0 79 21.5 142.5t60 107 92 67T344 668q33 0 60-7t49.5-18.5 40-25.5 31.5-29l-47-53q-24 26-55 43t-79 17q-46 0-83.5-18.5t-64.5-53-41.5-83.5T140 330q0-62 13.5-111.5t39-84.5T256 80t86-19q35 0 65 10.5t49 28.5v171H325v69h208V64q-31-32-81.5-54T337-12m-94-214-8 40q63 5 86 16.5t23 31.5-18 29.5T273-96l18 38q65-8 91-25.5t26-51.5q0-44-42.5-65.5T243-226" glyph-name="uni0122" unicode="Ģ"/><glyph d="M296-224q-107 0-165.5 35T72-89q0 29 20.5 57T152 19v4q-20 11-35 30t-15 50q0 23 15 47.5t43 43.5v4q-25 19-42.5 50.5T100 324q0 40 15.5 72t41.5 54.5 60.5 35T291 498q40 0 72-12h201v-67H438q17-17 29-43t12-55q0-39-14.5-70t-40-52.5-60-33T291 154q-19 0-40.5 4.5T209 172q-38-24-38-56 0-29 26.5-42.5T272 60h109q94 0 139.5-26T566-54q0-34-19-65t-54-54-85-37-112-14m-5 433q47 0 79.5 31t32.5 84q0 25-9 46t-24 36-35.5 23.5T291 438t-43.5-8.5T212 406t-24-36-9-46q0-53 33-84t79-31m11-373q42 0 76 8t58 21.5 36.5 31T485-67q0 35-27.5 47T374-8h-95q-21 0-39.5 1.5T205 0q-35-19-48.5-39.5T143-81q0-38 40.5-60.5T302-164m44 739q-65 7-91 25t-26 52q0 44 42.5 65.5T394 744l8-41q-63-4-86-15.5T293 655q0-20 18-29.5t53-12.5z" glyph-name="uni0123" unicode="ģ"/><glyph d="M79 0v656h84V381h274v275h84V0h-84v309H163V0zm109 699-36 26 105 113h86l105-113-36-26-110 93h-4z" glyph-name="Hcircumflex" unicode="Ĥ"/><glyph d="M93 0v712h82V518l-5-115h3q38 41 81.5 68T355 498q87 0 127.5-49.5T523 302V0h-82v291q0 69-26 102.5T329 427q-22 0-40.5-5.5T252 405t-37-27.5-40-38.5V0zM20 759l-36 26L89 898h86l105-113-36-26-110 93h-4z" glyph-name="hcircumflex" unicode="ĥ"/><glyph d="M10 484v56l69 6v110h84V546h274v110h84V546h69v-62h-69V0h-84v309H163V0H79v484zm153-103h274v103H163z" glyph-name="Hbar" unicode="Ħ"/><glyph d="M93 0v562H20v58l73 6v86h82v-86h213v-64H175v-64l-5-115h3q38 41 81.5 68T355 478q87 0 127.5-49.5T523 282V0h-82v271q0 69-26 102.5T329 407q-22 0-40.5-5.5T252 385t-37-27.5-40-38.5V0z" glyph-name="hbar" unicode="ħ"/><glyph d="M95 0v71h163v515H95v70h410v-70H342V71h163V0zm280 709q-28 0-48 11t-36.5 24.5-31 24.5-32.5 11q-19 0-32-17t-16-49l-56 4q3 57 30 90t72 33q28 0 48-11t36.5-24.5 31-24.5 32.5-11q40 0 48 66l56-4q-3-58-30-90.5T375 709" glyph-name="Itilde" unicode="Ĩ"/><glyph d="M316 0v419H90v67h308V0zm104 577q-27 0-46 13t-35 29-30.5 29-31.5 13q-23 0-34-22t-13-57l-55 3q1 29 7.5 54t18.5 43 30.5 28.5T276 721q27 0 46-13t35-29 30.5-29 32.5-13q22 0 33 22t13 57l55-4q-1-29-7.5-53.5T495 616t-30.5-28.5T420 577" glyph-name="itilde" unicode="ĩ"/><glyph d="M95 0v71h163v515H95v70h410v-70H342V71h163V0zm71 735v57h268v-57z" glyph-name="Imacron" unicode="Ī"/><glyph d="M316 0v419H90v67h308V0zM215 601v57h266v-57z" glyph-name="imacron" unicode="ī"/><glyph d="M95 0v71h163v515H95v70h410v-70H342V71h163V0zm205 705q-35 0-61 10.5t-44 28-28 41-13 49.5l50 8q6-35 29.5-59.5T300 758t66.5 24.5T396 842l50-8q-3-26-13-49.5t-28-41-44-28-61-10.5" glyph-name="Ibreve" unicode="Ĭ"/><glyph d="M316 0v419H90v67h308V0zm32 571q-40 0-69 13t-47.5 34.5-28 48.5-11.5 55l51 8q3-19 10.5-37.5T274 659t31.5-24 42.5-9 42.5 9 31.5 24 20.5 33.5T453 730l51-8q-2-28-11.5-55T464 618.5 416.5 584 348 571" glyph-name="ibreve" unicode="ĭ"/><glyph d="M311-225q-44 0-73.5 22.5T208-134q0 42 23 76t48 58H95v71h163v515H95v70h410v-70H342V71h163V0H347q-38-29-56-58.5T273-116q0-26 17-38.5t37-12.5q17 0 29 6.5t21 14.5l25-43q-17-15-39.5-25.5T311-225" glyph-name="Iogonek" unicode="Į"/><glyph d="M353-225q-45 0-74.5 22.5T249-132q0 42 25.5 75T335 0h-19v419H90v67h308V-5q-45-22-66.5-51.5T310-116q0-28 18-41.5t42-13.5q16 0 28.5 6t23.5 15l24-39q-18-17-41.5-26.5T353-225m-5 813q-28 0-47 17.5T282 652t19 46.5 47 17.5 47-17.5 19-46.5-19-46.5-47-17.5" glyph-name="iogonek" unicode="į"/><glyph d="M95 0v71h163v515H95v70h410v-70H342V71h163V0zm205 714q-25 0-42 15.5T241 771q0 25 17 40.5t42 15.5 42-15.5 17-40.5q0-26-17-41.5T300 714" glyph-name="Idotaccent" unicode="İ"/><glyph d="M316 0v419H90v67h308V0z" glyph-name="dotlessi" unicode="ı"/><glyph d="M112 0v656h83V0zm239-165q-23 0-41.5 4t-32.5 9l16 66q11-4 23.5-7t25.5-3q38 0 50.5 25.5T405 0v656h83V-3q0-74-31.5-118T351-165" glyph-name="IJ" unicode="Ĳ"/><glyph d="M112 0v486h82V0zm42 586q-26 0-43.5 16T93 644t17.5 42 43.5 16 43-16 17-42-17-42-43-16m217-803q-23 0-40.5 4t-30.5 9l16 62q10-3 21.5-5.5T362-150q37 0 48.5 25T422-55v541h82V-55q0-74-30-118t-103-44m93 803q-26 0-43.5 16T403 644t17.5 42 43.5 16 43-16 17-42-17-42-43-16" glyph-name="ij" unicode="ĳ"/><glyph d="M276-12q-55 0-108 26T81 97l52 51q28-45 65.5-66T274 61q71 0 103.5 37.5T410 217v370H135v70h358V210q0-46-11-86.5T445.5 53t-67-47.5T276-12m-64 711-36 26 105 113h86l105-113-36-26-110 93h-4z" glyph-name="Jcircumflex" unicode="Ĵ"/><glyph d="M194-217q-38 0-74 9.5T55-184l27 61q26-13 54.5-20t56.5-7q36 0 60 9t38 26 19.5 41.5T316-18v437H90v67h308V-12q0-45-10-82.5t-33.5-65T292-202t-98-15m34 785-35 32 114 140h82l114-140-35-32-118 113h-4z" glyph-name="jcircumflex" unicode="ĵ"/><glyph d="M98 0v656h84V327h3l276 329h95L348 407 580 0h-94L295 344 182 209V0zm153-226-8 40q63 5 86 16.5t23 31.5-18 29.5T281-96l18 38q65-8 91-25.5t26-51.5q0-44-42.5-65.5T251-226" glyph-name="uni0136" unicode="Ķ"/><glyph d="M106 0v712h82V230h4l262 256h94L354 295 574 0h-92L303 245 188 132V0zm142-226-8 40q63 5 86 16.5t23 31.5-18 29.5T278-96l18 38q65-8 91-25.5t26-51.5q0-44-42.5-65.5T248-226" glyph-name="uni0137" unicode="ķ"/><glyph d="M106 0v486h82V230l3 1 263 255h94L354 293 574 0h-92L303 240 188 130V0z" glyph-name="kgreenlandic" unicode="ĸ"/><glyph d="M134 0v656h82V71h325V0zm27 697-36 42 141 128 47-55z" glyph-name="Lacute" unicode="Ĺ"/><glyph d="M407-12q-78 0-119 44t-41 131v482H74v67h255V157q0-54 26-77.5T425 56q43 0 91 22l21-61Q503 3 475-4.5T407-12M257 757l-36 42 141 128 47-55z" glyph-name="lacute" unicode="ĺ"/><glyph d="M134 0v656h82V71h325V0zm128-226-8 40q63 5 86 16.5t23 31.5-18 29.5T292-96l18 38q65-8 91-25.5t26-51.5q0-44-42.5-65.5T262-226" glyph-name="uni013B" unicode="Ļ"/><glyph d="M407-12q-78 0-119 44t-41 131v482H74v67h255V157q0-54 26-77.5T425 56q43 0 91 22l21-61Q503 3 475-4.5T407-12M298-226l-8 40q63 5 86 16.5t23 31.5-18 29.5T328-96l18 38q65-8 91-25.5t26-51.5q0-44-42.5-65.5T298-226" glyph-name="uni013C" unicode="ļ"/><glyph d="M134 0v656h82V71h325V0zm248 515-3 268h74v-81l-14-187z" glyph-name="Lcaron" unicode="Ľ"/><glyph d="M407-12q-78 0-119 44t-41 131v482H74v67h255V157q0-54 26-77.5T425 56q43 0 91 22l21-61Q503 3 475-4.5T407-12m-3 560-3 268h74v-81l-14-187z" glyph-name="lcaron" unicode="ľ"/><glyph d="M134 0v656h82V71h325V0zm333 287q-28 0-47 17.5T401 351t19 46.5 47 17.5 47-17.5 19-46.5-19-46.5-47-17.5" glyph-name="Ldot" unicode="Ŀ"/><glyph d="M369-12q-78 0-119 44t-41 131v482H36v67h255V157q0-54 26-77.5T387 56q43 0 91 22l21-61Q465 3 437-4.5T369-12m200 298q-28 0-47 17.5T503 350t19 46.5 47 17.5 47-17.5 19-46.5-19-46.5-47-17.5" glyph-name="ldot" unicode="ŀ"/><glyph d="m39 181-29 53 124 66v356h82V337l211 113 29-53-240-128V71h325V0H134v233z" glyph-name="Lslash" unicode="Ł"/><glyph d="M407-12q-78 0-119 44t-41 131v172l-108-64-29 54 137 80v240H74v67h255V443l148 84 28-54-176-100V157q0-54 26-77.5T425 56q43 0 91 22l21-61Q503 3 475-4.5T407-12" glyph-name="lslash" unicode="ł"/><glyph d="M82 0v656h92l210-412 63-136h2q-2 49-6.5 102.5T438 316v340h80V0h-92L216 412l-63 136h-2q2-51 6.5-102.5T162 343V0zm199 697-36 42 141 128 47-55z" glyph-name="Nacute" unicode="Ń"/><glyph d="M93 0v486h68l7-83h4q38 41 82 68t101 27q87 0 127.5-49.5T523 302V0h-82v291q0 69-26 102.5T329 427q-22 0-40.5-5.5T252 405t-37-27.5-40-38.5V0zm204 568-43 41 142 168 58-56z" glyph-name="nacute" unicode="ń"/><glyph d="M82 0v656h92l210-412 63-136h2q-2 49-6.5 102.5T438 316v340h80V0h-92L216 412l-63 136h-2q2-51 6.5-102.5T162 343V0zm131-226-8 40q63 5 86 16.5t23 31.5-18 29.5T243-96l18 38q65-8 91-25.5t26-51.5q0-44-42.5-65.5T213-226" glyph-name="uni0145" unicode="Ņ"/><glyph d="M93 0v486h68l7-83h4q38 41 82 68t101 27q87 0 127.5-49.5T523 302V0h-82v291q0 69-26 102.5T329 427q-22 0-40.5-5.5T252 405t-37-27.5-40-38.5V0zm133-226-8 40q63 5 86 16.5t23 31.5-18 29.5T256-96l18 38q65-8 91-25.5t26-51.5q0-44-42.5-65.5T226-226" glyph-name="uni0146" unicode="ņ"/><glyph d="M82 0v656h92l210-412 63-136h2q-2 49-6.5 102.5T438 316v340h80V0h-92L216 412l-63 136h-2q2-51 6.5-102.5T162 343V0zm185 706L162 819l36 26 110-92h4l110 92 36-26-105-113z" glyph-name="Ncaron" unicode="Ň"/><glyph d="M93 0v486h68l7-83h4q38 41 82 68t101 27q87 0 127.5-49.5T523 302V0h-82v291q0 69-26 102.5T329 427q-22 0-40.5-5.5T252 405t-37-27.5-40-38.5V0zm184 574L163 714l35 32 118-113h4l118 113 35-32-114-140z" glyph-name="ncaron" unicode="ň"/><glyph d="M196 0v486h68l7-76h4q35 37 75 62.5t93 25.5q79 0 117-48t38-142V0h-83v297q0 66-23 98t-75 32q-39 0-69.5-20.5T278 346V0zM6 350l-28 48q47 26 74 65.5T82 556q-12-6-26-6-32 0-51.5 19.5T-15 621q0 35 21 56.5T59 699q40 0 65-32t25-89q0-75-38-134T6 350" glyph-name="napostrophe" unicode="ŉ"/><glyph d="M378-12q-19 0-40 3.5T303 2l21 75q9-5 20-7.5t25-2.5q20 0 37.5 12.5t30 43.5 19.5 82.5 7 129.5q0 74-10.5 124t-30 80-47 43-60.5 13q-37 0-78-27t-69-67V0H85v656h81v-77q32 37 75.5 63t91.5 26q46 0 86-17.5t68.5-57 45-103T549 335q0-95-11.5-161T504 67 450 7t-72-19" glyph-name="Eng" unicode="Ŋ"/><glyph d="M387-183q-23 0-42.5 4.5T311-169l16 63q11-4 24-7t27-3q38 0 50.5 27T441-14v305q0 69-26 102.5T329 427q-22 0-40.5-5.5T252 405t-37-27.5-40-38.5V0H93v486h68l7-83h4q38 41 82 68t101 27q87 0 127.5-49.5T523 302V-14q0-78-31.5-123.5T387-183" glyph-name="eng" unicode="ŋ"/><glyph d="M300-12q-56 0-102 23.5T118.5 79t-52 107.5T48 331q0 79 18.5 142t52 106 79.5 66 102 23q55 0 101.5-23t80-66 52-106T552 331q0-81-18.5-144.5T481.5 79t-80-67.5T300-12m0 73q37 0 68 18.5t52.5 53.5 33.5 85 12 113q0 62-12 111t-33.5 83-52.5 52-68 18q-38 0-68.5-18t-52-52-33.5-83-12-111q0-63 12-113t33.5-85 52-53.5T300 61M166 735v57h268v-57z" glyph-name="Omacron" unicode="Ō"/><glyph d="M300-12q-48 0-91.5 17T132 54.5t-52.5 80T60 242q0 61 19.5 108.5T132 431t76.5 50 91.5 17 91.5-17 76.5-50 52.5-80.5T540 242q0-60-19.5-107.5t-52.5-80T391.5 5 300-12m0 68q35 0 63.5 13.5t49 38T444 166t11 76-11 76.5-31.5 59.5-49 38.5T300 430t-63.5-13.5-49-38.5-31.5-59.5-11-76.5 11-76 31.5-58.5 49-38T300 56M167 601v57h266v-57z" glyph-name="omacron" unicode="ō"/><glyph d="M300-12q-56 0-102 23.5T118.5 79t-52 107.5T48 331q0 79 18.5 142t52 106 79.5 66 102 23q55 0 101.5-23t80-66 52-106T552 331q0-81-18.5-144.5T481.5 79t-80-67.5T300-12m0 73q37 0 68 18.5t52.5 53.5 33.5 85 12 113q0 62-12 111t-33.5 83-52.5 52-68 18q-38 0-68.5-18t-52-52-33.5-83-12-111q0-63 12-113t33.5-85 52-53.5T300 61m0 644q-35 0-61 10.5t-44 28-28 41-13 49.5l50 8q6-35 29.5-59.5T300 758t66.5 24.5T396 842l50-8q-3-26-13-49.5t-28-41-44-28-61-10.5" glyph-name="Obreve" unicode="Ŏ"/><glyph d="M300-12q-48 0-91.5 17T132 54.5t-52.5 80T60 242q0 61 19.5 108.5T132 431t76.5 50 91.5 17 91.5-17 76.5-50 52.5-80.5T540 242q0-60-19.5-107.5t-52.5-80T391.5 5 300-12m0 68q35 0 63.5 13.5t49 38T444 166t11 76-11 76.5-31.5 59.5-49 38.5T300 430t-63.5-13.5-49-38.5-31.5-59.5-11-76.5 11-76 31.5-58.5 49-38T300 56m0 515q-40 0-69 13t-47.5 34.5-28 48.5-11.5 55l51 8q3-19 10.5-37.5T226 659t31.5-24 42.5-9 42.5 9 31.5 24 20.5 33.5T405 730l51-8q-2-28-11.5-55T416 618.5 368.5 584 300 571" glyph-name="obreve" unicode="ŏ"/><glyph d="M300-12q-56 0-102 23.5T118.5 79t-52 107.5T48 331q0 79 18.5 142t52 106 79.5 66 102 23q55 0 101.5-23t80-66 52-106T552 331q0-81-18.5-144.5T481.5 79t-80-67.5T300-12m0 73q37 0 68 18.5t52.5 53.5 33.5 85 12 113q0 62-12 111t-33.5 83-52.5 52-68 18q-38 0-68.5-18t-52-52-33.5-83-12-111q0-63 12-113t33.5-85 52-53.5T300 61m-72 642-43 21 92 152 57-32zm160 0-43 21 93 152 56-32z" glyph-name="Ohungarumlaut" unicode="Ő"/><glyph d="M300-12q-48 0-91.5 17T132 54.5t-52.5 80T60 242q0 61 19.5 108.5T132 431t76.5 50 91.5 17 91.5-17 76.5-50 52.5-80.5T540 242q0-60-19.5-107.5t-52.5-80T391.5 5 300-12m0 68q35 0 63.5 13.5t49 38T444 166t11 76-11 76.5-31.5 59.5-49 38.5T300 430t-63.5-13.5-49-38.5-31.5-59.5-11-76.5 11-76 31.5-58.5 49-38T300 56m-57 512-46 21 87 172 58-28zm151 0-46 21 87 172 58-28z" glyph-name="ohungarumlaut" unicode="ő"/><glyph d="M296 0Q171 0 102 86.5T33 331q0 157 70.5 241.5T299 657h282v-70H387V380h148v-71H387V71h204V0zm-7 68h22v520h-22q-86 0-128-66t-42-191q0-126 42-194.5T289 68" glyph-name="OE" unicode="Œ"/><glyph d="M188 56q22 0 39.5 13.5t30 38.5 19.5 59 7 76-7 76-19.5 59-30 38.5T188 430q-49 0-74.5-51.5T88 242q0-84 25.5-135T188 56m-5-68q-37 0-68.5 17T60 54.5t-36 80T11 242q0 61 13 108.5T60.5 431t55 50 68.5 17q46 0 78.5-29t52.5-91q20 62 55.5 91t82.5 29q36 0 63-18t45-48 27-70.5 9-85.5q0-14-1-28.5t-3-27.5H347q5-84 37.5-124.5T466 55q26 0 46 9t40 23l30-56Q559 13 528.5.5T463-12q-49 0-88 28t-59 89q-21-61-54-89t-79-28m263 445q-39 0-66-37t-32-112h182q-4 149-84 149" glyph-name="oe" unicode="œ"/><glyph d="M100 0v656h204q50 0 92-9.5t72.5-31.5 47.5-57 17-86q0-77-40-123t-107-63L553 0h-95L300 277H183V0zm83 345h109q77 0 117.5 31.5T450 472q0 65-40.5 91T292 589H183zm92 352-36 42 141 128 47-55z" glyph-name="Racute" unicode="Ŕ"/><glyph d="M146 0v486h68l7-115h3q38 59 93.5 93T441 498q27 0 50-4.5t46-15.5l-19-71q-26 9-43.5 13t-46.5 4q-55 0-105.5-31.5T228 285V0zm179 568-43 41 142 168 58-56z" glyph-name="racute" unicode="ŕ"/><glyph d="M100 0v656h204q50 0 92-9.5t72.5-31.5 47.5-57 17-86q0-77-40-123t-107-63L553 0h-95L300 277H183V0zm83 345h109q77 0 117.5 31.5T450 472q0 65-40.5 91T292 589H183zm50-571-8 40q63 5 86 16.5t23 31.5-18 29.5T263-96l18 38q65-8 91-25.5t26-51.5q0-44-42.5-65.5T233-226" glyph-name="uni0156" unicode="Ŗ"/><glyph d="M146 0v486h68l7-115h3q38 59 93.5 93T441 498q27 0 50-4.5t46-15.5l-19-71q-26 9-43.5 13t-46.5 4q-55 0-105.5-31.5T228 285V0zm-35-226-8 40q63 5 86 16.5t23 31.5-18 29.5T141-96l18 38q65-8 91-25.5t26-51.5q0-44-42.5-65.5T111-226" glyph-name="uni0157" unicode="ŗ"/><glyph d="M100 0v656h204q50 0 92-9.5t72.5-31.5 47.5-57 17-86q0-77-40-123t-107-63L553 0h-95L300 277H183V0zm83 345h109q77 0 117.5 31.5T450 472q0 65-40.5 91T292 589H183zm78 361L156 819l36 26 110-92h4l110 92 36-26-105-113z" glyph-name="Rcaron" unicode="Ř"/><glyph d="M146 0v486h68l7-115h3q38 59 93.5 93T441 498q27 0 50-4.5t46-15.5l-19-71q-26 9-43.5 13t-46.5 4q-55 0-105.5-31.5T228 285V0zm159 574L191 714l35 32 118-113h4l118 113 35-32-114-140z" glyph-name="rcaron" unicode="ř"/><glyph d="M305-12q-72 0-132.5 26T67 85l50 58q37-37 86-59.5T309 61q68 0 105.5 29t37.5 75q0 26-9 44t-25 31-37.5 23-46.5 21l-94 41q-25 10-50 24t-45.5 34-33.5 47.5T98 494q0 37 16 69t44.5 55.5 68 36.5 86.5 13q62 0 114-22.5t88-58.5l-44-54q-32 29-71 45.5T310 595q-57 0-92-25.5T183 499q0-24 10.5-40.5t27-29T258 408l42-18 92-40q30-12 56.5-27.5t46-36 31-48T537 175q0-39-16-73t-46-59.5-73-40T305-12m-18 709-36 42 141 128 47-55z" glyph-name="Sacute" unicode="Ś"/><glyph d="M310-12q-72 0-133 22.5T71 64l38 54q42-30 92.5-48T320 52q62 0 92.5 22.5T443 128q0 14-5 26t-21.5 23-46.5 21-79 20q-95 20-142.5 53.5T101 360q0 29 13 54.5t38.5 44 63 29T303 498q56 0 108-18.5t88-43.5l-40-53q-34 23-75 37t-88 14q-62 0-87-21t-25-49q0-32 33-48.5T325 283q61-13 100-27.5t61.5-32.5 31-40 8.5-50q0-30-14-56t-41.5-46-68-31.5T310-12m-28 580-43 41 142 168 58-56z" glyph-name="sacute" unicode="ś"/><glyph d="M305-12q-72 0-132.5 26T67 85l50 58q37-37 86-59.5T309 61q68 0 105.5 29t37.5 75q0 26-9 44t-25 31-37.5 23-46.5 21l-94 41q-25 10-50 24t-45.5 34-33.5 47.5T98 494q0 37 16 69t44.5 55.5 68 36.5 86.5 13q62 0 114-22.5t88-58.5l-44-54q-32 29-71 45.5T310 595q-57 0-92-25.5T183 499q0-24 10.5-40.5t27-29T258 408l42-18 92-40q30-12 56.5-27.5t46-36 31-48T537 175q0-39-16-73t-46-59.5-73-40T305-12M204 699l-36 26 105 113h86l105-113-36-26-110 93h-4z" glyph-name="Scircumflex" unicode="Ŝ"/><glyph d="M310-12q-72 0-133 22.5T71 64l38 54q42-30 92.5-48T320 52q62 0 92.5 22.5T443 128q0 14-5 26t-21.5 23-46.5 21-79 20q-95 20-142.5 53.5T101 360q0 29 13 54.5t38.5 44 63 29T303 498q56 0 108-18.5t88-43.5l-40-53q-34 23-75 37t-88 14q-62 0-87-21t-25-49q0-32 33-48.5T325 283q61-13 100-27.5t61.5-32.5 31-40 8.5-50q0-30-14-56t-41.5-46-68-31.5T310-12M183 568l-35 32 114 140h82l114-140-35-32-118 113h-4z" glyph-name="scircumflex" unicode="ŝ"/><glyph d="M305-12q-72 0-132.5 26T67 85l50 58q37-37 86-59.5T309 61q68 0 105.5 29t37.5 75q0 26-9 44t-25 31-37.5 23-46.5 21l-94 41q-25 10-50 24t-45.5 34-33.5 47.5T98 494q0 37 16 69t44.5 55.5 68 36.5 86.5 13q62 0 114-22.5t88-58.5l-44-54q-32 29-71 45.5T310 595q-57 0-92-25.5T183 499q0-24 10.5-40.5t27-29T258 408l42-18 92-40q30-12 56.5-27.5t46-36 31-48T537 175q0-39-16-73t-46-59.5-73-40T305-12m-73-214-8 40q63 5 86 16.5t23 33.5q0 20-17 31t-60 17l40 96h54l-26-72q35-8 54-24t19-47q0-44-42.5-65.5T232-226" glyph-name="uni015E" unicode="Ş"/><glyph d="M310-12q-72 0-133 22.5T71 64l38 54q42-30 92.5-48T320 52q62 0 92.5 22.5T443 128q0 14-5 26t-21.5 23-46.5 21-79 20q-95 20-142.5 53.5T101 360q0 29 13 54.5t38.5 44 63 29T303 498q56 0 108-18.5t88-43.5l-40-53q-34 23-75 37t-88 14q-62 0-87-21t-25-49q0-32 33-48.5T325 283q61-13 100-27.5t61.5-32.5 31-40 8.5-50q0-30-14-56t-41.5-46-68-31.5T310-12m-83-214-8 40q63 5 86 16.5t23 33.5q0 20-17 31t-60 17l40 96h54l-26-72q35-8 54-24t19-47q0-44-42.5-65.5T227-226" glyph-name="uni015F" unicode="ş"/><glyph d="M305-12q-72 0-132.5 26T67 85l50 58q37-37 86-59.5T309 61q68 0 105.5 29t37.5 75q0 26-9 44t-25 31-37.5 23-46.5 21l-94 41q-25 10-50 24t-45.5 34-33.5 47.5T98 494q0 37 16 69t44.5 55.5 68 36.5 86.5 13q62 0 114-22.5t88-58.5l-44-54q-32 29-71 45.5T310 595q-57 0-92-25.5T183 499q0-24 10.5-40.5t27-29T258 408l42-18 92-40q30-12 56.5-27.5t46-36 31-48T537 175q0-39-16-73t-46-59.5-73-40T305-12m-32 718L168 819l36 26 110-92h4l110 92 36-26-105-113z" glyph-name="Scaron" unicode="Š"/><glyph d="M310-12q-72 0-133 22.5T71 64l38 54q42-30 92.5-48T320 52q62 0 92.5 22.5T443 128q0 14-5 26t-21.5 23-46.5 21-79 20q-95 20-142.5 53.5T101 360q0 29 13 54.5t38.5 44 63 29T303 498q56 0 108-18.5t88-43.5l-40-53q-34 23-75 37t-88 14q-62 0-87-21t-25-49q0-32 33-48.5T325 283q61-13 100-27.5t61.5-32.5 31-40 8.5-50q0-30-14-56t-41.5-46-68-31.5T310-12m-48 586L148 714l35 32 118-113h4l118 113 35-32-114-140z" glyph-name="scaron" unicode="š"/><glyph d="M258 0v586H42v70h516v-70H342V0zm-45-226-8 40q63 5 86 16.5t23 33.5q0 20-17 31t-60 17l40 96h54l-26-72q35-8 54-24t19-47q0-44-42.5-65.5T213-226" glyph-name="uni0162" unicode="Ţ"/><glyph d="M394-12q-53 0-89 14.5t-58 41-31.5 63.5-9.5 82v230H69v62l140 5 11 156h68V486h239v-67H288V188q0-33 6-57.5T314 89t38-25.5 59-8.5 63 6 54 16l18-60Q513 5 476.5-3.5T394-12m-92-214-8 40q63 5 86 16.5t23 33.5q0 20-17 31t-60 17l40 96h54l-26-72q35-8 54-24t19-47q0-44-42.5-65.5T302-226" glyph-name="uni0163" unicode="ţ"/><glyph d="M258 0v586H42v70h516v-70H342V0zm-1 706L152 819l36 26 110-92h4l110 92 36-26-105-113z" glyph-name="Tcaron" unicode="Ť"/><glyph d="M394-12q-53 0-89 14.5t-58 41-31.5 63.5-9.5 82v230H69v62l140 5 11 156h68V486h239v-67H288V188q0-33 6-57.5T314 89t38-25.5 59-8.5 63 6 54 16l18-60Q513 5 476.5-3.5T394-12m5 560-3 268h74v-81l-14-187z" glyph-name="tcaron" unicode="ť"/><glyph d="M116 306v58l90 4h52v218H42v70h516v-70H342V368h142v-62H342V0h-84v306z" glyph-name="Tbar" unicode="Ŧ"/><glyph d="M70 220v58l136 6v135H69v62l140 5 11 156h68V486h239v-67H288V284h220v-64H288v-32q0-33 6-57.5T314 89t38-25.5 59-8.5 63 6 54 16l18-60Q513 5 476.5-3.5T394-12q-53 0-89 14.5t-58 41-31.5 63.5-9.5 82v31z" glyph-name="tbar" unicode="ŧ"/><glyph d="M301-12q-48 0-89 14t-70.5 45.5-46 80.5T79 248v408h84V246q0-51 10.5-86.5t29-57T246 71t55-10 55 10 44 31.5 29.5 57T440 246v410h81V248q0-71-16.5-120T459 47.5 389.5 2 301-12m74 721q-28 0-48 11t-36.5 24.5-31 24.5-32.5 11q-19 0-32-17t-16-49l-56 4q3 57 30 90t72 33q28 0 48-11t36.5-24.5 31-24.5 32.5-11q40 0 48 66l56-4q-3-58-30-90.5T375 709" glyph-name="Utilde" unicode="Ũ"/><glyph d="M246-12q-88 0-128.5 49.5T77 184v302h83V195q0-69 25.5-102.5T272 59q42 0 76 21.5t75 68.5v337h82V0h-67l-7 85h-4q-37-43-80.5-70T246-12m122 589q-27 0-46 13t-35 29-30.5 29-31.5 13q-23 0-34-22t-13-57l-55 3q1 29 7.5 54t18.5 43 30.5 28.5T224 721q27 0 46-13t35-29 30.5-29 32.5-13q22 0 33 22t13 57l55-4q-1-29-7.5-53.5T443 616t-30.5-28.5T368 577" glyph-name="utilde" unicode="ũ"/><glyph d="M301-12q-48 0-89 14t-70.5 45.5-46 80.5T79 248v408h84V246q0-51 10.5-86.5t29-57T246 71t55-10 55 10 44 31.5 29.5 57T440 246v410h81V248q0-71-16.5-120T459 47.5 389.5 2 301-12M166 735v57h268v-57z" glyph-name="Umacron" unicode="Ū"/><glyph d="M246-12q-88 0-128.5 49.5T77 184v302h83V195q0-69 25.5-102.5T272 59q42 0 76 21.5t75 68.5v337h82V0h-67l-7 85h-4q-37-43-80.5-70T246-12m-83 613v57h266v-57z" glyph-name="umacron" unicode="ū"/><glyph d="M301-12q-48 0-89 14t-70.5 45.5-46 80.5T79 248v408h84V246q0-51 10.5-86.5t29-57T246 71t55-10 55 10 44 31.5 29.5 57T440 246v410h81V248q0-71-16.5-120T459 47.5 389.5 2 301-12m-1 717q-35 0-61 10.5t-44 28-28 41-13 49.5l50 8q6-35 29.5-59.5T300 758t66.5 24.5T396 842l50-8q-3-26-13-49.5t-28-41-44-28-61-10.5" glyph-name="Ubreve" unicode="Ŭ"/><glyph d="M246-12q-88 0-128.5 49.5T77 184v302h83V195q0-69 25.5-102.5T272 59q42 0 76 21.5t75 68.5v337h82V0h-67l-7 85h-4q-37-43-80.5-70T246-12m50 583q-40 0-69 13t-47.5 34.5-28 48.5-11.5 55l51 8q3-19 10.5-37.5T222 659t31.5-24 42.5-9 42.5 9 31.5 24 20.5 33.5T401 730l51-8q-2-28-11.5-55T412 618.5 364.5 584 296 571" glyph-name="ubreve" unicode="ŭ"/><glyph d="M301-12q-48 0-89 14t-70.5 45.5-46 80.5T79 248v408h84V246q0-51 10.5-86.5t29-57T246 71t55-10 55 10 44 31.5 29.5 57T440 246v410h81V248q0-71-16.5-120T459 47.5 389.5 2 301-12m-1 711q-42 0-69.5 24.5T203 789q0 42 27.5 66.5T300 880t69.5-24.5T397 789q0-41-27.5-65.5T300 699m0 36q20 0 35.5 14t15.5 40-15.5 40-35.5 14q-22 0-37-14t-15-40 15-40 37-14" glyph-name="Uring" unicode="Ů"/><glyph d="M246-12q-88 0-128.5 49.5T77 184v302h83V195q0-69 25.5-102.5T272 59q42 0 76 21.5t75 68.5v337h82V0h-67l-7 85h-4q-37-43-80.5-70T246-12m50 581q-52 0-81 27.5T186 665t29 68.5 81 27.5 81-27.5 29-68.5-29-68.5-81-27.5m0 37q24 0 40.5 17t16.5 42q0 26-16.5 42.5T296 724t-40.5-16.5T239 665q0-25 16.5-42t40.5-17" glyph-name="uring" unicode="ů"/><glyph d="M301-12q-48 0-89 14t-70.5 45.5-46 80.5T79 248v408h84V246q0-51 10.5-86.5t29-57T246 71t55-10 55 10 44 31.5 29.5 57T440 246v410h81V248q0-71-16.5-120T459 47.5 389.5 2 301-12m-73 715-43 21 92 152 57-32zm160 0-43 21 93 152 56-32z" glyph-name="Uhungarumlaut" unicode="Ű"/><glyph d="M246-12q-88 0-128.5 49.5T77 184v302h83V195q0-69 25.5-102.5T272 59q42 0 76 21.5t75 68.5v337h82V0h-67l-7 85h-4q-37-43-80.5-70T246-12m-7 580-46 21 87 172 58-28zm151 0-46 21 87 172 58-28z" glyph-name="uhungarumlaut" unicode="ű"/><glyph d="M318-225q-45 0-74 22.5T215-134q0 21 6.5 39.5t16.5 34 22 28T282-11q-93 5-148 68T79 248v408h84V246q0-51 10.5-86.5t28.5-57T245 71t55-10 55.5 10 44 31.5 29.5 57 11 86.5v410h81V248q0-106-35-163.5T383 0q-59-24-81.5-55T279-116q0-26 17-38.5t38-12.5q16 0 28 6.5t22 14.5l25-43q-17-15-39.5-25.5T318-225" glyph-name="Uogonek" unicode="Ų"/><glyph d="M446-225q-44 0-73.5 22.5T343-132q0 43 28 75.5T438 0l-7 85h-4q-37-43-80.5-70T246-12q-88 0-128.5 49.5T77 184v302h83V195q0-69 25.5-102.5T272 59q42 0 76 21.5t75 68.5v337h82V-5q-54-24-77.5-53T404-116q0-28 18-41.5t41-13.5q17 0 30 6t22 15l24-39q-17-17-40.5-26.5T446-225" glyph-name="uogonek" unicode="ų"/><glyph d="M110 0 10 657h94l48-412q2-21 4-38t3.5-34.5 3-36.5 2.5-43h3q4 24 8 43t7.5 36.5T191 207t9 37l64 244h80l62-244q5-20 9-37t7.5-34.5 7-36.5 8.5-43h4q1 24 2.5 43t3 36.5 3 34.5 3.5 37l46 413h90L494 0H390l-64 264q-8 30-13.5 59T302 382h-3q-5-30-10-59t-13-59L212 0zm78 699-36 26 105 113h86l105-113-36-26-110 93h-4z" glyph-name="Wcircumflex" unicode="Ŵ"/><glyph d="M114 0 8 486h82l58-282q7-35 12-67t10-67h4q5 35 12.5 67.5T202 204l60 252h82l58-252q8-35 16.5-67T432 70h4q6 35 10.5 67t11.5 67l58 282h76L488 0H382l-56 232q-12 51-24 144h-4q-12-93-24-144L220 0zm66 568-35 32 114 140h82l114-140-35-32-118 113h-4z" glyph-name="wcircumflex" unicode="ŵ"/><glyph d="M258 0v234L38 656h88l99-195q19-38 37-75.5t38-77.5h4l39 78 38 76 95 194h86L342 234V0zm-70 699-36 26 105 113h86l105-113-36-26-110 93h-4z" glyph-name="Ycircumflex" unicode="Ŷ"/><glyph d="M131-209q-36 0-64 10l17 65q10-3 21.5-5t22.5-2q51 0 83 29.5T261-37l15 36L49 486h83l119-269q14-32 29.5-69T311 76h4q13 35 26.5 71.5T367 217l106 269h78L337-40q-14-36-32-67t-43-53.5-57.5-35.5-73.5-13m53 777-35 32 114 140h82l114-140-35-32-118 113h-4z" glyph-name="ycircumflex" unicode="ŷ"/><glyph d="M258 0v234L38 656h88l99-195q19-38 37-75.5t38-77.5h4l39 78 38 76 95 194h86L342 234V0zm-49 715q-22 0-36.5 14T158 766t14.5 36.5T209 816t36-13.5 14-36.5-14-37-36-14m182 0q-22 0-36 14t-14 37 14 36.5 36 13.5 36.5-13.5T442 766t-14.5-37-36.5-14" glyph-name="Ydieresis" unicode="Ÿ"/><glyph d="M65 0v50l366 537H97v70h437v-50L167 71h372V0zm223 697-36 42 141 128 47-55z" glyph-name="Zacute" unicode="Ź"/><glyph d="M71 0v44l333 375H108v67h414v-44L188 67h343V0zm230 568-43 41 142 168 58-56z" glyph-name="zacute" unicode="ź"/><glyph d="M65 0v50l366 537H97v70h437v-50L167 71h372V0zm252 714q-25 0-42 15.5T258 771q0 25 17 40.5t42 15.5 42-15.5 17-40.5q0-26-17-41.5T317 714" glyph-name="Zdotaccent" unicode="Ż"/><glyph d="M71 0v44l333 375H108v67h414v-44L188 67h343V0zm251 588q-28 0-47 17.5T256 652t19 46.5 47 17.5 47-17.5 19-46.5-19-46.5-47-17.5" glyph-name="zdotaccent" unicode="ż"/><glyph d="M65 0v50l366 537H97v70h437v-50L167 71h372V0zm209 706L169 819l36 26 110-92h4l110 92 36-26-105-113z" glyph-name="Zcaron" unicode="Ž"/><glyph d="M71 0v44l333 375H108v67h414v-44L188 67h343V0zm210 574L167 714l35 32 118-113h4l118 113 35-32-114-140z" glyph-name="zcaron" unicode="ž"/><glyph d="M242 0v419H103v62l139 5v41q0 89 47.5 143T438 724q72 0 140-28l-19-62q-30 14-55.5 18.5T446 657q-66 0-94.5-33.5T323 530V0z" glyph-name="longs" unicode="ſ"/><glyph d="M320-12q-35 0-75.5 17.5T169 54h-3l-7-54H93v562H20v59l73 5v86h82v-86h213v-64H175v-67l-3-91h3q33 34 76.5 54t86.5 20q49 0 87-17t63.5-47.5T527 339t13-98q0-60-18-107t-48.5-79.5T403 5t-83-17m-13 69q64 0 106 48.5T455 240q0 76-32 122.5T318 409q-32 0-68.5-17.5T175 336V114q35-31 70.5-44T307 57" glyph-name="uni0180" unicode="ƀ"/><glyph d="M209 0v595q-57-11-86-51t-29-95q0-48 19-77t57-52l-40-58q-51 26-80.5 70T20 445q0 48 15.5 89t47 71 78 46.5T269 668q151 0 224.5-86T567 338q0-162-68.5-250T308 0zm83 68h21q82 0 125 70.5T481 338q0 122-44.5 189T292 599z" glyph-name="uni018A" unicode="Ɗ"/><glyph d="M300-12q-55 0-99.5 24.5t-76 68.5T76 187.5 59 327v11.5l1 11.5h407q-4 118-47 182t-123 64q-41 0-74-16t-58-42l-40 57q31 32 74.5 52.5T301 668t104-23.5 78.5-67 49.5-106T550 330t-18.5-142T480 80.5 401 12 300-12m0 72q69 0 113.5 57T466 286H141q8-114 49-170t110-56" glyph-name="uni018F" unicode="Ə"/><glyph d="M132-97q-26 0-47 5.5T49-79l16 62q14-5 28.5-9t30.5-4q52 0 74.5 39.5T231 126l24 219H151v59l70 4h41l6 56q13 100 53 152t124 52q26 0 50-6t41-14l-20-62q-14 7-29.5 11t-37.5 4q-25 0-42.5-11T377 561t-19-41.5-10-48.5l-7-63h142v-63H334l-27-237q-6-46-17.5-83.5T258-40t-51-42-75-15" glyph-name="uni0192" unicode="ƒ"/><glyph d="m525 588-47-53q-24 26-55 43t-79 17q-46 0-83.5-18.5t-64.5-53-41.5-83.5T140 330q0-62 13.5-111.5t39-84.5T256 80t86-19q35 0 65 10.5t49 28.5v171H325v69h208V64q-31-32-81.5-54T337-12q-62 0-114 23t-90 66.5-59 107T53 328q0 79 21.5 142.5t60 107 92 67T344 668q22 0 41.5-3.5T422 656q-7 20-7 43 0 47 30.5 76t80.5 29q20 0 35.5-4t27.5-9l-16-63q-8 3-15.5 6t-18.5 3q-26 0-40-15.5T485 683q0-27 10-46.5t30-48.5" glyph-name="uni0193" unicode="Ɠ"/><glyph d="M300-12q-56 0-102 23.5T118.5 79t-52 107.5T48 331q0 79 18.5 142t52 106 79.5 66 102 23q62 0 111-28 78 16 78 86 0 15-4 30.5T474 784l65 29q11-17 17-37.5t6-43.5q0-51-28-82.5T458 606q45-43 69.5-112T552 331q0-81-18.5-144.5T481.5 79t-80-67.5T300-12m0 73q37 0 68 18.5t52.5 53.5 33.5 85 12 113q0 62-12 111t-33.5 83-52.5 52-68 18q-38 0-68.5-18t-52-52-33.5-83-12-111q0-63 12-113t33.5-85 52-53.5T300 61" glyph-name="Ohorn" unicode="Ơ"/><glyph d="M300-12q-48 0-91.5 17T132 54.5t-52.5 80T60 242q0 61 19.5 108.5T132 431t76.5 50 91.5 17q54 0 101-21 42 9 64 32.5t22 66.5q0 15-3.5 30.5T472 634l64 30q11-17 17-38t6-44q0-29-8.5-51.5t-23-39-34-28T452 445q40-32 64-83t24-120q0-60-19.5-107.5t-52.5-80T391.5 5 300-12m0 68q35 0 63.5 13.5t49 38T444 166t11 76-11 76.5-31.5 59.5-49 38.5T300 430t-63.5-13.5-49-38.5-31.5-59.5-11-76.5 11-76 31.5-58.5 49-38T300 56" glyph-name="ohorn" unicode="ơ"/><glyph d="M301-12q-48 0-89 14t-70.5 45.5-46 80.5T79 248v408h84V246q0-51 10.5-86.5t29-57T246 71t55-10 55 10 44 31.5 29.5 57T440 246v410h33q41 5 62.5 23t21.5 60q0 15-4 30.5T542 797l65 28q11-17 17-37t6-43q0-58-31.5-86T521 620V248q0-71-16.5-120T459 47.5 389.5 2 301-12" glyph-name="Uhorn" unicode="Ư"/><glyph d="M246-12q-88 0-128.5 49.5T77 184v302h83V195q0-69 25.5-102.5T272 59q42 0 76 21.5t75 68.5v337h16q18 3 33.5 9t27.5 17 18.5 28 6.5 42q0 15-3 30.5T511 640l64 30q11-17 17-38t6-44q0-29-8-50.5t-21-37-29.5-26T505 457V0h-67l-7 85h-4q-37-43-80.5-70T246-12" glyph-name="uhorn" unicode="ư"/><glyph d="M260-205v359H84v58l176 4v108H84v58l176 4v326h80V386h176v-62H340V216h176v-62H340v-359z" glyph-name="uni01C2" unicode="ǂ"/><glyph d="m232 367-31-100h196l-31 100q-17 55-33.5 109.5T301 588h-4q-16-57-32-111.5T232 367M32 0l221 656h94L568 0h-88l-62 200H180L117 0zm225 706L152 819l36 26 110-92h4l110 92 36-26-105-113z" glyph-name="uni01CD" unicode="Ǎ"/><glyph d="M246-12q-34 0-64 9.5t-52.5 27-35.5 43T81 126q0 41 19.5 71.5t62 52.5T272 286t161 22q-1 25-8 47t-22 38.5-39.5 26.5-59.5 10q-48 0-92-18.5T134 372l-32 56q18 12 42.5 24.5t52 22.5 58.5 16.5 63 6.5q100 0 148.5-54.5T515 298V0h-67l-7 66h-3q-41-32-90.5-55T246-12m22 66q42 0 82.5 18.5T433 126v128q-78-6-130.5-17t-84-26.5-44.5-35-13-43.5q0-21 9-35.5t23.5-24 34-14T268 54m11 520L165 714l35 32 118-113h4l118 113 35-32-114-140z" glyph-name="uni01CE" unicode="ǎ"/><glyph d="M95 0v71h163v515H95v70h410v-70H342V71h163V0zm162 706L152 819l36 26 110-92h4l110 92 36-26-105-113z" glyph-name="uni01CF" unicode="Ǐ"/><glyph d="M316 0v419H90v67h308V0zm-9 574L193 714l35 32 118-113h4l118 113 35-32-114-140z" glyph-name="uni01D0" unicode="ǐ"/><glyph d="M300-12q-56 0-102 23.5T118.5 79t-52 107.5T48 331q0 79 18.5 142t52 106 79.5 66 102 23q55 0 101.5-23t80-66 52-106T552 331q0-81-18.5-144.5T481.5 79t-80-67.5T300-12m0 73q37 0 68 18.5t52.5 53.5 33.5 85 12 113q0 62-12 111t-33.5 83-52.5 52-68 18q-38 0-68.5-18t-52-52-33.5-83-12-111q0-63 12-113t33.5-85 52-53.5T300 61m-43 645L152 819l36 26 110-92h4l110 92 36-26-105-113z" glyph-name="uni01D1" unicode="Ǒ"/><glyph d="M300-12q-48 0-91.5 17T132 54.5t-52.5 80T60 242q0 61 19.5 108.5T132 431t76.5 50 91.5 17 91.5-17 76.5-50 52.5-80.5T540 242q0-60-19.5-107.5t-52.5-80T391.5 5 300-12m0 68q35 0 63.5 13.5t49 38T444 166t11 76-11 76.5-31.5 59.5-49 38.5T300 430t-63.5-13.5-49-38.5-31.5-59.5-11-76.5 11-76 31.5-58.5 49-38T300 56m-41 518L145 714l35 32 118-113h4l118 113 35-32-114-140z" glyph-name="uni01D2" unicode="ǒ"/><glyph d="M301-12q-48 0-89 14t-70.5 45.5-46 80.5T79 248v408h84V246q0-51 10.5-86.5t29-57T246 71t55-10 55 10 44 31.5 29.5 57T440 246v410h81V248q0-71-16.5-120T459 47.5 389.5 2 301-12m-44 718L152 819l36 26 110-92h4l110 92 36-26-105-113z" glyph-name="uni01D3" unicode="Ǔ"/><glyph d="M246-12q-88 0-128.5 49.5T77 184v302h83V195q0-69 25.5-102.5T272 59q42 0 76 21.5t75 68.5v337h82V0h-67l-7 85h-4q-37-43-80.5-70T246-12m9 586L141 714l35 32 118-113h4l118 113 35-32-114-140z" glyph-name="uni01D4" unicode="ǔ"/><glyph d="M301-12q-48 0-89 14t-70.5 45.5-46 80.5T79 248v408h84V246q0-51 10.5-86.5t29-57T246 71t55-10 55 10 44 31.5 29.5 57T440 246v410h81V248q0-71-16.5-120T459 47.5 389.5 2 301-12M197 715q-20 0-32.5 13T152 761t12.5 32.5T197 806t33-12.5 13-32.5-13-33-33-13m206 0q-20 0-33 13t-13 33 13 32.5 33 12.5 32.5-12.5T448 761t-12.5-33-32.5-13M166 861v46h268v-46z" glyph-name="uni01D5" unicode="Ǖ"/><glyph d="M246-12q-88 0-128.5 49.5T77 184v302h83V195q0-69 25.5-102.5T272 59q42 0 76 21.5t75 68.5v337h82V0h-67l-7 85h-4q-37-43-80.5-70T246-12m-46 600q-20 0-33 13t-13 32q0 20 13 33t33 13 32.5-13 12.5-33q0-19-12.5-32T200 588m192 0q-20 0-32.5 13T347 633q0 20 12.5 33t32.5 13 33-13 13-33q0-19-13-32t-33-13M162 750v47h267v-47z" glyph-name="uni01D6" unicode="ǖ"/><glyph d="M301-12q-48 0-89 14t-70.5 45.5-46 80.5T79 248v408h84V246q0-51 10.5-86.5t29-57T246 71t55-10 55 10 44 31.5 29.5 57T440 246v410h81V248q0-71-16.5-120T459 47.5 389.5 2 301-12M197 715q-20 0-32.5 13T152 761t12.5 32.5T197 806t33-12.5 13-32.5-13-33-33-13m206 0q-20 0-33 13t-13 33 13 32.5 33 12.5 32.5-12.5T448 761t-12.5-33-32.5-13M299 823l-37 26 95 119 53-36z" glyph-name="uni01D7" unicode="Ǘ"/><glyph d="M246-12q-88 0-128.5 49.5T77 184v302h83V195q0-69 25.5-102.5T272 59q42 0 76 21.5t75 68.5v337h82V0h-67l-7 85h-4q-37-43-80.5-70T246-12m-46 600q-20 0-33 13t-13 32q0 20 13 33t33 13 32.5-13 12.5-33q0-19-12.5-32T200 588m192 0q-20 0-32.5 13T347 633q0 20 12.5 33t32.5 13 33-13 13-33q0-19-13-32t-33-13M289 705l-35 24 82 115 49-34z" glyph-name="uni01D8" unicode="ǘ"/><glyph d="M301-12q-48 0-89 14t-70.5 45.5-46 80.5T79 248v408h84V246q0-51 10.5-86.5t29-57T246 71t55-10 55 10 44 31.5 29.5 57T440 246v410h81V248q0-71-16.5-120T459 47.5 389.5 2 301-12M197 715q-20 0-32.5 13T152 761t12.5 32.5T197 806t33-12.5 13-32.5-13-33-33-13m206 0q-20 0-33 13t-13 33 13 32.5 33 12.5 32.5-12.5T448 761t-12.5-33-32.5-13M264 839l-99 96 33 27 100-75h4l100 75 33-27-99-96z" glyph-name="uni01D9" unicode="Ǚ"/><glyph d="M246-12q-88 0-128.5 49.5T77 184v302h83V195q0-69 25.5-102.5T272 59q42 0 76 21.5t75 68.5v337h82V0h-67l-7 85h-4q-37-43-80.5-70T246-12m-46 600q-20 0-33 13t-13 32q0 20 13 33t33 13 32.5-13 12.5-33q0-19-12.5-32T200 588m192 0q-20 0-32.5 13T347 633q0 20 12.5 33t32.5 13 33-13 13-33q0-19-13-32t-33-13M262 720l-94 92 30 28 96-73h4l96 73 30-28-94-92z" glyph-name="uni01DA" unicode="ǚ"/><glyph d="M301-12q-48 0-89 14t-70.5 45.5-46 80.5T79 248v408h84V246q0-51 10.5-86.5t29-57T246 71t55-10 55 10 44 31.5 29.5 57T440 246v410h81V248q0-71-16.5-120T459 47.5 389.5 2 301-12M197 715q-20 0-32.5 13T152 761t12.5 32.5T197 806t33-12.5 13-32.5-13-33-33-13m206 0q-20 0-33 13t-13 33 13 32.5 33 12.5 32.5-12.5T448 761t-12.5-33-32.5-13M301 823 190 932l53 36 95-119z" glyph-name="uni01DB" unicode="Ǜ"/><glyph d="M246-12q-88 0-128.5 49.5T77 184v302h83V195q0-69 25.5-102.5T272 59q42 0 76 21.5t75 68.5v337h82V0h-67l-7 85h-4q-37-43-80.5-70T246-12m-46 600q-20 0-33 13t-13 32q0 20 13 33t33 13 32.5-13 12.5-33q0-19-12.5-32T200 588m192 0q-20 0-32.5 13T347 633q0 20 12.5 33t32.5 13 33-13 13-33q0-19-13-32t-33-13m-89 117-96 105 49 34 82-115z" glyph-name="uni01DC" unicode="ǜ"/><glyph d="m231 377-46-119h132v332h-3q-20-54-41.5-106.5T231 377M-1 0l264 656h319v-70H393V381h147v-71H393V71h198V0H317v191H159L86 0zm287 735v57h268v-57z" glyph-name="uni01E2" unicode="Ǣ"/><glyph d="M145-12q-56 0-92 35t-36 97q0 74 58.5 119.5T266 302q-2 71-26 99.5T178 430q-30 0-60.5-12T64 390l-31 56q30 20 69.5 36t82.5 16q44 0 75-23t48-77q25 54 62 77t78 23q38 0 66-18t46.5-48.5T588 361t9-85q0-14-1-28.5t-3-27.5H332q4-77 36-121t89-44q28 0 51.5 9T552 87l30-56Q557 13 524.5.5T454-12q-51 0-88.5 22.5T304 75q-35-42-74.5-64.5T145-12m22 66q28 0 59 17.5t57 51.5q-17 54-17 119v7q-51-8-84-19.5T129 203t-28-34-8-41q0-35 20.5-54.5T167 54m276 379q-38 0-70-34t-40-115h197q-4 149-87 149M183 601v57h266v-57z" glyph-name="uni01E3" unicode="ǣ"/><glyph d="M337-12q-62 0-114 23t-90 66.5-59 107T53 328q0 79 21.5 142.5t60 107 92 67T344 668q33 0 60-7t49.5-18.5 40-25.5 31.5-29l-47-53q-24 26-55 43t-79 17q-46 0-83.5-18.5t-64.5-53-41.5-83.5T140 330q0-62 13.5-111.5t39-84.5T256 80t86-19q35 0 65 10.5t49 28.5v171H325v69h208V64q-31-32-81.5-54T337-12m-50 718L182 819l36 26 110-92h4l110 92 36-26-105-113z" glyph-name="Gcaron" unicode="Ǧ"/><glyph d="M296-224q-107 0-165.5 35T72-89q0 29 20.5 57T152 19v4q-20 11-35 30t-15 50q0 23 15 47.5t43 43.5v4q-25 19-42.5 50.5T100 324q0 40 15.5 72t41.5 54.5 60.5 35T291 498q40 0 72-12h201v-67H438q17-17 29-43t12-55q0-39-14.5-70t-40-52.5-60-33T291 154q-19 0-40.5 4.5T209 172q-38-24-38-56 0-29 26.5-42.5T272 60h109q94 0 139.5-26T566-54q0-34-19-65t-54-54-85-37-112-14m-5 433q47 0 79.5 31t32.5 84q0 25-9 46t-24 36-35.5 23.5T291 438t-43.5-8.5T212 406t-24-36-9-46q0-53 33-84t79-31m11-373q42 0 76 8t58 21.5 36.5 31T485-67q0 35-27.5 47T374-8h-95q-21 0-39.5 1.5T205 0q-35-19-48.5-39.5T143-81q0-38 40.5-60.5T302-164m-36 738L152 714l35 32 118-113h4l118 113 35-32-114-140z" glyph-name="gcaron" unicode="ǧ"/><glyph d="M318-225q-45 0-74 22.5T215-134q0 40 21.5 70T286-11q-58 4-102.5 32T109 94 63.5 199.5 48 331q0 79 18.5 141.5t52 106T198 645t102 23q55 0 101.5-23.5t80-67 52-106T552 331q0-132-46.5-214T371-2q-46-20-69-51.5T279-116q0-26 17-38.5t38-12.5q16 0 28 6.5t22 14.5l25-43q-17-15-39.5-25.5T318-225M300 60q75 0 120.5 71T466 331q0 62-12 111t-33.5 83-52.5 52-68 18q-38 0-68.5-18t-52-52-33.5-83-12-111q0-129 45.5-200T300 60" glyph-name="uni01EA" unicode="Ǫ"/><glyph d="M324-225q-43 0-72 22.5T223-132q0 39 21 69.5T291-11q-50 2-92.5 21t-73 51.5-48 78.5T60 242q0 61 19.5 108.5T132 431t76.5 50 91.5 17 91.5-17 76.5-50 52.5-80.5T540 242q0-51-12-89t-34.5-67-54-50.5T369-3q-41-18-63-50t-22-63q0-29 18-42t39-13q19 0 32 6.5t22 14.5l24-39q-17-16-40.5-26T324-225M300 55q35 0 63.5 13.5t49 38 31.5 59 11 76.5-11 76.5-31.5 59.5-49 38.5T300 430t-63.5-13.5-49-38.5-31.5-59.5-11-76.5 11-76.5 31.5-59 49-38T300 55" glyph-name="uni01EB" unicode="ǫ"/><glyph d="M337-12q-62 0-114 23t-90 66.5-59 107T53 328q0 79 21.5 142.5t60 107 92 67T344 668q33 0 60-7t49.5-18.5 40-25.5 31.5-29l-47-53q-24 26-55 43t-79 17q-46 0-83.5-18.5t-64.5-53-41.5-83.5T140 330q0-62 13.5-111.5t39-84.5T256 80t86-19q35 0 65 10.5t49 28.5v171H325v69h208V64q-31-32-81.5-54T337-12m-36 709-36 42 141 128 47-55z" glyph-name="uni01F4" unicode="Ǵ"/><glyph d="M296-224q-107 0-165.5 35T72-89q0 29 20.5 57T152 19v4q-20 11-35 30t-15 50q0 23 15 47.5t43 43.5v4q-25 19-42.5 50.5T100 324q0 40 15.5 72t41.5 54.5 60.5 35T291 498q40 0 72-12h201v-67H438q17-17 29-43t12-55q0-39-14.5-70t-40-52.5-60-33T291 154q-19 0-40.5 4.5T209 172q-38-24-38-56 0-29 26.5-42.5T272 60h109q94 0 139.5-26T566-54q0-34-19-65t-54-54-85-37-112-14m-5 433q47 0 79.5 31t32.5 84q0 25-9 46t-24 36-35.5 23.5T291 438t-43.5-8.5T212 406t-24-36-9-46q0-53 33-84t79-31m11-373q42 0 76 8t58 21.5 36.5 31T485-67q0 35-27.5 47T374-8h-95q-21 0-39.5 1.5T205 0q-35-19-48.5-39.5T143-81q0-38 40.5-60.5T302-164m-16 732-43 41 142 168 58-56z" glyph-name="uni01F5" unicode="ǵ"/><glyph d="M82 0v656h92l210-412 63-136h2q-2 49-6.5 102.5T438 316v340h80V0h-92L216 412l-63 136h-2q2-51 6.5-102.5T162 343V0zm257 697L187 812l47 55 141-128z" glyph-name="uni01F8" unicode="Ǹ"/><glyph d="M93 0v486h68l7-83h4q38 41 82 68t101 27q87 0 127.5-49.5T523 302V0h-82v291q0 69-26 102.5T329 427q-22 0-40.5-5.5T252 405t-37-27.5-40-38.5V0zm246 568L182 721l58 56 142-168z" glyph-name="uni01F9" unicode="ǹ"/><glyph d="m232 367-31-100h196l-31 100q-17 55-33.5 109.5T301 588h-4q-16-57-32-111.5T232 367M32 0l221 656h94L568 0h-88l-62 200H180L117 0zm268 699q-42 0-69.5 24.5T203 789q0 24 10 43t27 31l132 105 37-50-79-42q30-8 48.5-31t18.5-56q0-41-27.5-65.5T300 699m0 36q20 0 35.5 14t15.5 40-15.5 40-35.5 14q-22 0-37-14t-15-40 15-40 37-14" glyph-name="Aringacute" unicode="Ǻ"/><glyph d="M246-12q-34 0-64 9.5t-52.5 27-35.5 43T81 126q0 41 19.5 71.5t62 52.5T272 286t161 22q-1 25-8 47t-22 38.5-39.5 26.5-59.5 10q-48 0-92-18.5T134 372l-32 56q18 12 42.5 24.5t52 22.5 58.5 16.5 63 6.5q100 0 148.5-54.5T515 298V0h-67l-7 66h-3q-41-32-90.5-55T246-12m22 66q42 0 82.5 18.5T433 126v128q-78-6-130.5-17t-84-26.5-44.5-35-13-43.5q0-21 9-35.5t23.5-24 34-14T268 54m52 515q-52 0-81 27.5T210 665q0 26 12 47t35 34l133 97 35-50-73-35q37-8 57.5-33.5T430 665q0-41-29-68.5T320 569m0 37q24 0 40.5 17t16.5 42q0 26-16.5 42.5T320 724t-40.5-16.5T263 665q0-25 16.5-42t40.5-17" glyph-name="aringacute" unicode="ǻ"/><glyph d="m231 377-46-119h132v332h-3q-20-54-41.5-106.5T231 377M-1 0l264 656h319v-70H393V381h147v-71H393V71h198V0H317v191H159L86 0zm392 697-36 42 141 128 47-55z" glyph-name="AEacute" unicode="Ǽ"/><glyph d="M145-12q-56 0-92 35t-36 97q0 74 58.5 119.5T266 302q-2 71-26 99.5T178 430q-30 0-60.5-12T64 390l-31 56q30 20 69.5 36t82.5 16q44 0 75-23t48-77q25 54 62 77t78 23q38 0 66-18t46.5-48.5T588 361t9-85q0-14-1-28.5t-3-27.5H332q4-77 36-121t89-44q28 0 51.5 9T552 87l30-56Q557 13 524.5.5T454-12q-51 0-88.5 22.5T304 75q-35-42-74.5-64.5T145-12m22 66q28 0 59 17.5t57 51.5q-17 54-17 119v7q-51-8-84-19.5T129 203t-28-34-8-41q0-35 20.5-54.5T167 54m276 379q-38 0-70-34t-40-115h197q-4 149-87 149M295 568l-43 41 142 168 58-56z" glyph-name="aeacute" unicode="ǽ"/><glyph d="M300-12q-89 0-154 60L92-32 36 4l67 98q-26 43-40.5 100.5T48 331q0 79 18.5 142t52 106 79.5 66 102 23q87 0 152-57l52 77 56-36-64-94q27-42 41.5-99T552 331q0-81-18.5-144.5T481.5 79t-80-67.5T300-12M134 331q0-87 23-150l249 364q-44 50-106 50-38 0-68.5-18t-52-52-33.5-83-12-111M300 61q37 0 68 18.5t52.5 53.5 33.5 85 12 113q0 89-24 149L192 115q43-54 108-54m-29 636-36 42 141 128 47-55z" glyph-name="Oslashacute" unicode="Ǿ"/><glyph d="M300-12q-79 0-140 43l-52-61-46 42 53 62q-26 32-40.5 74T60 242q0 61 19.5 108.5T132 431t76.5 50 91.5 17q79 0 140-43l52 61 46-42-53-62q26-32 40.5-74.5T540 242q0-60-19.5-107.5t-52.5-80T391.5 5 300-12M145 242q0-60 23-106l224 263q-38 33-92 33-35 0-63.5-14t-49-39-31.5-60-11-77M300 54q35 0 63.5 14t49 38.5 31.5 59 11 76.5q0 63-23 107L207 86q19-15 42.5-23.5T300 54m-21 514-43 41 142 168 58-56z" glyph-name="oslashacute" unicode="ǿ"/><glyph d="M305-12q-72 0-132.5 26T67 85l50 58q37-37 86-59.5T309 61q68 0 105.5 29t37.5 75q0 26-9 44t-25 31-37.5 23-46.5 21l-94 41q-25 10-50 24t-45.5 34-33.5 47.5T98 494q0 37 16 69t44.5 55.5 68 36.5 86.5 13q62 0 114-22.5t88-58.5l-44-54q-32 29-71 45.5T310 595q-57 0-92-25.5T183 499q0-24 10.5-40.5t27-29T258 408l42-18 92-40q30-12 56.5-27.5t46-36 31-48T537 175q0-39-16-73t-46-59.5-73-40T305-12m-79-214-8 40q63 5 86 16.5t23 31.5-18 29.5T256-96l18 38q65-8 91-25.5t26-51.5q0-44-42.5-65.5T226-226" glyph-name="uni0218" unicode="Ș"/><glyph d="M310-12q-72 0-133 22.5T71 64l38 54q42-30 92.5-48T320 52q62 0 92.5 22.5T443 128q0 14-5 26t-21.5 23-46.5 21-79 20q-95 20-142.5 53.5T101 360q0 29 13 54.5t38.5 44 63 29T303 498q56 0 108-18.5t88-43.5l-40-53q-34 23-75 37t-88 14q-62 0-87-21t-25-49q0-32 33-48.5T325 283q61-13 100-27.5t61.5-32.5 31-40 8.5-50q0-30-14-56t-41.5-46-68-31.5T310-12m-88-214-8 40q63 5 86 16.5t23 31.5-18 29.5T252-96l18 38q65-8 91-25.5t26-51.5q0-44-42.5-65.5T222-226" glyph-name="uni0219" unicode="ș"/><glyph d="M258 0v586H42v70h516v-70H342V0zm-45-226-8 40q63 5 86 16.5t23 31.5-18 29.5T243-96l18 38q65-8 91-25.5t26-51.5q0-44-42.5-65.5T213-226" glyph-name="uni021A" unicode="Ț"/><glyph d="M394-12q-53 0-89 14.5t-58 41-31.5 63.5-9.5 82v230H69v62l140 5 11 156h68V486h239v-67H288V188q0-33 6-57.5T314 89t38-25.5 59-8.5 63 6 54 16l18-60Q513 5 476.5-3.5T394-12M292-226l-8 40q63 5 86 16.5t23 31.5-18 29.5T322-96l18 38q65-8 91-25.5t26-51.5q0-44-42.5-65.5T292-226" glyph-name="uni021B" unicode="ț"/><glyph d="M194-217q-38 0-74 9.5T55-184l27 61q26-13 54.5-20t56.5-7q36 0 60 9t38 26 19.5 41.5T316-18v437H90v67h308V-12q0-45-10-82.5t-33.5-65T292-202t-98-15" glyph-name="uni0237" unicode="ȷ"/><glyph d="M105 0v162H26v56l79 6v432h186q50 0 91.5-9t71-28 46-49.5T516 496q0-49-28-88.5T401 353v-4q72-11 112-50t40-107q0-48-18-84t-50.5-60-78-36T306 0zm83 70h106q85 0 131 29.5t46 96.5q0 61-45 87.5T294 310H188v-86h142v-62H188zm0 310h89q84 0 120.5 27t36.5 82q0 54-38.5 75.5T281 586h-93z" glyph-name="uni0243" unicode="Ƀ"/><glyph d="M292-12q-100 0-149 54.5T94 188v298h68l7-66h3q40 32 90 55t101 23q34 0 64.5-9t53-27 35.5-43.5 13-58.5q0-41-20-71.5T446.5 236t-109-36T177 179q1-25 8-47.5t22-39T246 66t59-10q48 0 92.5 18.5T476 114l32-56q-18-12-42.5-24.5t-52-22.5T355-5.5 292-12M177 232q78 6 130 17t83.5 26.5 45 35T449 354q0 21-9 35.5t-23.5 24-34 14T342 432q-42 0-82.5-18.5T177 360z" glyph-name="uni0250" unicode="ɐ"/><glyph d="M270-12q-47 0-85.5 17T118 54.5 75 134 60 242q0 59 18 106.5t49 80.5 71 51 84 18q43 0 79-17t70-49h3l7 54h66V0h-68l-7 64h-3q-29-31-71-53.5T270-12m18 69q72 0 137 73v242q-33 31-64.5 44T297 429t-59.5-13.5-48-38T157 319t-12-76q0-88 37.5-137T288 57" glyph-name="uni0251" unicode="ɑ"/><glyph d="M320-12q-36 0-76 17.5T169 54h-3l-7-54H93v486h68l7-64h3q29 31 74 53.5t94 22.5 86.5-17.5 63-50 38.5-78T540 251q0-62-18-111t-48.5-83T403 5.5 320-12m-14 69q32 0 59 13t47 38 31.5 60 11.5 79q0 83-32.5 132.5T317 429q-36 0-73-18.5T175 356V114q35-32 69.5-44.5T306 57" glyph-name="uni0252" unicode="ɒ"/><glyph d="M321-12q-36 0-76.5 17T169 54h-3l-7-54H93v537q0 42 11 76t33.5 59 56.5 38.5 79 13.5q26 0 50-5.5t43-13.5l-19-63q-17 8-34 11.5t-32 3.5q-54 0-79-31t-27-87l-4-122h4q33 34 76.5 54t86.5 20q49 0 87-17.5t63.5-49 38.5-77T540 247q0-62-18-110t-48.5-81-70-50.5T321-12m-14 69q31 0 58.5 13t47 37.5 31 59.5 11.5 79q0 79-32.5 127.5T318 422q-32 0-69-17.5T175 349V114q35-32 70.5-44.5T307 57" glyph-name="uni0253" unicode="ɓ"/><glyph d="M257-12q-57 0-107 20T61 64l37 53q29-26 67.5-43.5T249 56q42 0 76 13.5t58.5 38 38 58.5 13.5 76-13 76.5-36.5 59.5-56 38.5T258 430q-44 0-79-15t-66-41l-42 53q31 29 78.5 50T263 498q52 0 98.5-17t82-50 56-80.5T520 242q0-60-20.5-107.5t-55.5-80T360.5 5 257-12" glyph-name="uni0254" unicode="ɔ"/><glyph d="M361 54q55 0 83 16t28 41q0 18-14 29.5T412 152q-29 0-65-22t-70-61q37-15 84-15M185-102l-67 28q12 32 26.5 61.5T176 43q-45 32-70.5 82.5T80 242q0 61 21.5 108.5t58 80.5 84.5 50 101 17q63 0 107-20t76-51l-40-51q-29 27-63.5 42T348 433q-40 0-74-14t-59-39-39.5-60-14.5-78q0-45 15.5-80t43.5-59q47 52 98 80t99 28q58 0 89-27t31-72q0-52-44.5-88T359-12q-67 0-125 23-15-26-27.5-54T185-102" glyph-name="uni0255" unicode="ɕ"/><glyph d="M546-176q-63 0-92 36.5T425-39l2 100h-3q-29-30-69.5-51.5T269-12q-47 0-85.5 17t-66 49.5T75 134 60 242q0 59 18.5 106.5t49 80.5 70 51 82.5 18q44 0 78-17t66-46h3l-5 90v187h83V-21q0-42 10.5-65t39.5-23q10 0 19 3t17 6l16-63q-11-5-26.5-9t-34.5-4M288 57q70 0 134 73v242q-33 31-65 44t-63 13-58-13.5-47.5-38-32-58.5-11.5-76q0-88 38-137t105-49" glyph-name="uni0256" unicode="ɖ"/><glyph d="M269-12q-95 0-152 66T60 242q0 59 18 106.5t48.5 80.5 70 51 82.5 18 77.5-16.5T423 435h3l-2 90v56q0 68 32 106.5t98 38.5q17 0 31-2.5t25-7.5l-16-63q-7 2-14.5 4t-16.5 2q-33 0-46-25t-13-67V0h-68l-7 64h-3q-29-31-70.5-53.5T269-12m18 69q70 0 135 73v242q-33 31-65 44t-64 13q-30 0-57-13.5t-47.5-38-32-58.5-11.5-76q0-88 37.5-137T287 57" glyph-name="uni0257" unicode="ɗ"/><glyph d="M290 433q-63 0-105-37t-48-112h310q-11 72-54 110.5T290 433M270-12q-59 0-105 17T83 45l29 54q34-21 69.5-33T261 54q37 0 70 10.5T389 96t40.5 52 19.5 72H66q-2 9-2.5 23t-.5 27q0 51 16.5 93t47 72 73.5 46.5 95 16.5q48 0 91-17.5t75-50.5 51-80.5T531 242t-20.5-107-56-79.5-83-50T270-12" glyph-name="uni0258" unicode="ɘ"/><glyph d="M297-12q-55 0-97.5 17.5T128 54t-44 74.5T69 224q0 13 1 27t3 23h381q-8 79-54 119t-121 40q-44 0-80-12.5T130 387l-30 54q37 23 83 40t105 17q55 0 101-17.5t79-50 51-79.5 18-107q0-61-18.5-108.5t-51-80.5T391 5t-94-17m-2 66q66 0 108.5 39T454 210H143q5-78 44.5-117T295 54" glyph-name="uni0259" unicode="ə"/><glyph d="M217-12q-46 0-81 16.5T77 49t-37.5 66T22 197l305 131q-17 56-50.5 80.5T200 433q-38 0-66-11.5T80 392l-29 56q32 23 69.5 36.5T207 498q68 0 118-35t75-104l73 32 43-17q2-29 6-46.5t10-27.5 14-13.5 19-3.5q10 0 19 5t15 10l22-43q-11-9-26.5-17t-35.5-8q-29 0-55.5 20T467 324l-53-22q2-16 3.5-32.5T419 236q0-54-14.5-99.5t-41-78.5T300 6.5 217-12m-1 65q28 0 51.5 12T307 99t25 53 9 68q0 14-.5 26t-1.5 24L94 166q14-60 45.5-86.5T216 53" glyph-name="uni025A" unicode="ɚ"/><glyph d="M318-12q-51 0-92.5 9.5T154 26t-46.5 46.5T91 135q0 52 33 80t81 41v4q-42 16-65.5 44T116 368q0 33 15.5 57.5T175 466t66.5 24 84.5 8q61 0 109.5-17t87.5-45l-33-54q-35 24-72.5 37.5T330 433q-64 0-98-18.5T198 358q0-74 147-74h53v-64h-67q-77 0-117.5-18T173 142q0-43 41-65.5T331 54q49 0 90.5 13.5T499 113l36-54q-46-40-98.5-55.5T318-12" glyph-name="uni025B" unicode="ɛ"/><glyph d="M280-12q-60 0-113 15.5T62 61l36 54q42-35 86-48t89-13q76 0 117 22.5t41 64.5-38.5 60.5T281 220h-84v64h72q70 0 104.5 19.5T408 359q0 74-134 74-53 0-90.5-13.5T108 378l-34 55q42 31 91.5 48T279 498q46 0 84.5-8t66.5-24 43.5-41 15.5-58q0-36-21.5-63.5T402 259v-4q50-13 80.5-40.5T513 134q0-35-17-62t-47.5-46T375-2.5 280-12" glyph-name="uni025C" unicode="ɜ"/><glyph d="M327-12q-57 0-105.5 16T137 52t-56 79.5T61 241q0 63 21.5 111.5T140 433t83 48.5 98 16.5q40 0 75-8t61-24 40.5-41 14.5-58q0-36-21-65t-63-43v-4q22-5 42-15t35-25 23.5-35 8.5-46q0-70-56.5-108T327-12m1 66q61 0 94 22.5t33 64.5q0 40-35.5 59.5T330 220h-35v64h27q52 0 81 20t29 54q0 38-29.5 56.5T324 433q-38 0-71-13t-57-37.5-38-60.5-14-81q0-93 49.5-140T328 54" glyph-name="uni025E" unicode="ɞ"/><glyph d="M194-217q-38 0-74 9.5T55-184l27 61q26-13 54.5-20t56.5-7q36 0 60 9t38 26 19.5 41.5T316-18v224H122v60l194 6v147H90v67h308V272h166v-66H398V-12q0-45-10-82.5t-33.5-65T292-202t-98-15" glyph-name="uni025F" unicode="ɟ"/><glyph d="M279-216q-48 0-95.5 13.5T95-163l31 58q37-24 76.5-34.5T279-150q70 0 106 34.5T422-22l4 97h-3q-28-29-68.5-49.5T269 5q-47 0-85.5 17t-66 48.5-42.5 77T60 250t18.5 103 49 78 70.5 49.5 83 17.5 78-17 64-46h3l-2 48q0 66 31.5 106t99.5 40q17 0 31-2.5t25-7.5l-16-63q-14 6-31 6-33 0-46-25t-13-67V-24q0-91-60-141.5T279-216m9 289q69 0 134 73v226q-33 32-65 44.5T294 429t-58-13-47.5-37-32-56.5T145 251q0-82 38-130t105-48" glyph-name="uni0260" unicode="ɠ"/><glyph d="M280-217q-48 0-96.5 13T95-165l30 59q38-24 78-34.5t77-10.5q70 0 107.5 35T427-22l2 97h-3q-29-29-70-49.5T270 5q-47 0-85.5 17T118 70.5t-43 77T60 250t18 103 48.5 78 71 49.5T282 498q43 0 80-17.5t69-48.5h3l7 54h66V-19q0-92-59-145t-168-53m8 290q70 0 137 73v226q-33 31-65 44t-64 13q-31 0-58.5-13T189 379t-33-56.5-12-71.5q0-82 38.5-130T288 73" glyph-name="uni0261" unicode="ɡ"/><glyph d="M339-12q-54 0-101.5 16.5t-83 49-56 80T78 243q0 60 21.5 107t58 80 84.5 50.5T344 498q65 0 107.5-21t72.5-49l-41-52q-26 23-56.5 40T348 433q-38 0-71.5-12.5t-59-37-40.5-60-15-80.5q0-44 13.5-79t38-59.5T271 67t72-13q33 0 61.5 10T454 91v112H320v59h206V57q-31-29-79-49T339-12" glyph-name="uni0262" unicode="ɢ"/><glyph d="M302-224q-56 0-86 32.5T186-106q0 18 4.5 35t13 35.5 19.5 40T248 52L51 486h84l113-266q14-35 25.5-62T300 97h4q15 34 27 61t26 62l112 266h80L356 52q13-26 24.5-47.5t20-40 13-35.5 4.5-35q0-53-30-85.5T302-224m0 57q23 0 34 17t11 42q0 26-12 55.5T304 11h-5q-18-34-30-64.5T257-108q0-25 11-42t34-17" glyph-name="uni0263" unicode="ɣ"/><glyph d="M300-12q-86 0-136 45t-50 124q0 56 36 107t93 99q-31 34-56 50.5T134 430t-48-14l-26 60q16 11 38.5 16.5T144 498q41 0 78.5-22.5T300 411q39 42 77 64.5t79 22.5q23 0 45.5-5.5T540 476l-26-60q-20 14-48 14-29 0-53.5-16.5T357 363q57-48 93-99t36-107q0-79-50-124T300-12m0 68q50 0 78.5 29t28.5 74q0 44-30 84.5T300 324q-47-40-77-80.5T193 159q0-45 28.5-74T300 56" glyph-name="uni0264" unicode="ɤ"/><glyph d="M425-205v174l4 114q-39-40-83-67.5T245-12q-87 0-127.5 49.5T77 184v302h82V195q0-69 26-102.5T271 59q22 0 40.5 5.5T348 81t37 27.5 40 38.5v339h82v-691z" glyph-name="uni0265" unicode="ɥ"/><glyph d="M93 0v537q0 42 11 76t33.5 59 56.5 38.5 79 13.5q26 0 50-5.5t43-13.5l-19-63q-17 8-34 11.5t-32 3.5q-54 0-79-31t-27-87l-6-143h4q38 40 81.5 67.5T355 491q87 0 127.5-50T523 294V0h-82v284q0 69-26 102t-86 33q-22 0-40.5-5.5T252 397t-37-27-40-38V0z" glyph-name="uni0266" unicode="ɦ"/><glyph d="M384-183q-24 0-44 4.5t-34 9.5l16 63q11-4 24.5-7t28.5-3q40 0 53 27t13 75v298q0 69-26 102t-86 33q-22 0-40.5-5.5T252 397t-37-27-40-38V0H93v537q0 42 11 76t33.5 59 56.5 38.5 79 13.5q26 0 49.5-5.5T366 705l-19-63q-35 15-66 15-54 0-79-31t-27-87l-6-143h4q38 40 81.5 67.5T355 491q87 0 127.5-50T523 294V-14q0-78-31.5-123.5T384-183" glyph-name="uni0267" unicode="ɧ"/><glyph d="M132 210v56l184 6v147H90v67h308V272h166v-62H398V0h-82v210zm216 378q-28 0-47 17.5T282 652t19 46.5 47 17.5 47-17.5 19-46.5-19-46.5-47-17.5" glyph-name="uni0268" unicode="ɨ"/><glyph d="M86 0v67h172v352H86v67h428v-67H340V67h174V0z" glyph-name="uni026A" unicode="ɪ"/><glyph d="M407-12q-78 0-119 44t-41 131v482H74v67h255V157q0-54 26-77.5T425 56q43 0 91 22l21-61Q503 3 475-4.5T407-12m-24 327q-33 0-57 13t-44.5 29-39.5 29-41 13-33-21.5-13-56.5l-55 10q1 27 7 50.5t17.5 40.5 29 27 41.5 10q33 0 57.5-13t45-29 39-29 40.5-13 33 21.5 13 55.5l55-9q-2-27-7.5-50.5t-17-40.5-29-27-41.5-10" glyph-name="uni026B" unicode="ɫ"/><glyph d="M232 302q-84 0-120 29.5T76 408q0 38 25.5 62t64.5 24q28 0 47.5-9.5T247 460v185H74v67h255V366h140v-64H329V157q0-54 26-77.5T425 56q43 0 91 22l21-61Q503 3 475-4.5T407-12q-78 0-119 44t-41 131v139zm-18 64h33v6q0 23-17.5 43.5T174 436q-14 0-23-8.5t-9-23.5q0-38 72-38" glyph-name="uni026C" unicode="ɬ"/><glyph d="M406-183q-78 0-118.5 44T247-8v653H74v67h255V-14q0-54 25.5-77t69.5-23q21 0 43 5t49 17l21-62q-33-12-62-20.5t-69-8.5" glyph-name="uni026D" unicode="ɭ"/><glyph d="M358-217q-75 0-123.5 24T155-139l41 52q26-25 62.5-43.5T351-149q28 0 53 10.5t43.5 30 29 47T487 0q0 62-35 97t-97 35q-26 0-39.5-3.5T285 117l-34 44 195 258H161V0H79v712h82V486h388v-44L358 190q52 4 91.5-9.5T516 141t41-62 14-77q0-53-18-93.5T505.5-160t-68-42.5T358-217" glyph-name="uni026E" unicode="ɮ"/><glyph d="M542 486V0h-66l-7 64h-2q-19-34-44-55t-67-21q-71 0-92 84-21-39-46.5-61.5T150-12q-51 0-79.5 38.5T42 138v348h82V144q0-85 52-85 26 0 42 18.5t36 56.5v352h76V144q0-42 11.5-63.5T380 59q26 0 44 18.5t36 56.5v352z" glyph-name="uni026F" unicode="ɯ"/><glyph d="M464-205v172l6 100h-4q-20-37-44-58t-66-21q-71 0-92 84-21-39-46.5-61.5T150-12q-51 0-79.5 38.5T42 138v348h82V144q0-85 52-85 26 0 42 18.5t36 56.5v352h76V144q0-42 11.5-63.5T380 59q26 0 44 18.5t36 56.5v352h82v-691z" glyph-name="uni0270" unicode="ɰ"/><glyph d="M435-183q-20 0-37 3.5t-29 8.5l16 63q8-3 19-5.5t22-2.5q32 0 41 24t9 64v370q0 85-52 85-26 0-42-18.5T346 352V0h-76v342q0 42-11.5 63.5T220 427q-26 0-44-18.5T140 352V0H58v486h66l7-64h2q19 34 44 55t67 21q71 0 92-84 21 39 46.5 61.5T450 498q51 0 79.5-38.5T558 348V-32q0-71-28.5-111T435-183" glyph-name="uni0271" unicode="ɱ"/><glyph d="M56-183q-19 0-34.5 4T-5-170l16 63q8-3 17-6t19-3q29 0 39.5 23T97-28v514h68l7-83h4q38 41 81 68t99 27q86 0 126.5-49.5T523 302V0h-82v291q0 72-26 104t-83 32q-22 0-40.5-5.5T255 405t-36-27.5-39-38.5V-28q0-72-28-113.5T56-183" glyph-name="uni0272" unicode="ɲ"/><glyph d="M560-183q-68 0-95.5 41.5T437-28v319q0 72-26 104t-84 32q-43 0-76-22t-76-66V0H93v486h68l7-83h4q38 41 80.5 68t98.5 27q87 0 127.5-49.5T519 302V-28q0-42 10.5-65t39.5-23q10 0 19 3t17 6l16-63q-11-5-26.5-9t-34.5-4" glyph-name="uni0273" unicode="ɳ"/><glyph d="M96 0v486h79l188-275q15-23 33-52t34-52h4q-3 48-5.5 93t-2.5 84v202h78V0h-79L237 275q-15 23-33.5 52T170 379h-4q3-48 5.5-93t2.5-84V0z" glyph-name="uni0274" unicode="ɴ"/><glyph d="M300-12q-48 0-91.5 16T132 52t-52.5 79.5T60 242t19.5 111 52.5 80.5 76.5 48.5 91.5 16 91.5-16 76.5-48.5 52.5-80.5T540 242t-19.5-110.5T468 52 391.5 4 300-12m0 446q-63 0-105.5-39T141 284h318q-11 72-53.5 111T300 434m0-381q68 0 111.5 43.5T461 220H139q6-80 49.5-123.5T300 53" glyph-name="uni0275" unicode="ɵ"/><glyph d="M238-12q-42 0-79.5 16.5T93.5 53t-44 79.5T33 243t16.5 110.5 44 79.5 65 48.5T238 498q24 0 46.5-2t51.5-10h241v-68H387V284h153v-64H387V68h200V0H336q-28-7-51-9.5T238-12m7 67q15 0 32.5 3.5T311 67v351q-15 5-32.5 8.5T245 430q-27 0-50-11.5t-40-35-27-58.5-10-82q0-48 10-83.5t27-59T195 66t50-11" glyph-name="uni0276" unicode="ɶ"/><glyph d="M128 244q0-85 37.5-133.5T260 57v372q-57-5-94.5-52.5T128 244m344 0q0 85-37.5 132.5T340 429V57q57 5 94.5 53.5T472 244M260-205V-9q-44 3-83 20.5T108.5 61t-47 78T44 244q0 58 17.5 104t47 77.5 68.5 49 83 20.5v217h80V495q43-3 82.5-20.5t69-49 47-77.5T556 244q0-59-17.5-105t-47-78-69-49.5T340-9v-196z" glyph-name="uni0278" unicode="ɸ"/><glyph d="M454 486V0h-68l-7 115h-3q-38-59-93.5-93T159-12q-27 0-50 4.5T63 8l19 71q26-9 43.5-13t46.5-4q55 0 105.5 31.5T372 201v285z" glyph-name="uni0279" unicode="ɹ"/><glyph d="M159-12q-27 0-50 4.5T63 8l19 71q26-9 43.5-13t46.5-4q55 0 105.5 31.5T372 201v511h82V0h-68l-7 115h-3q-38-59-93.5-93T159-12" glyph-name="uni027A" unicode="ɺ"/><glyph d="M436-183q-74 0-104 41.5T302-25V92h-3q-25-48-62.5-76T150-12q-21 0-42.5 4.5T63 8l19 71q22-9 37.5-13t39.5-4q37 0 73.5 26.5T295 181v305h82V-15q0-54 15-77.5t53-23.5q14 0 29.5 4.5T502-102l18-62q-15-8-38-13.5t-46-5.5" glyph-name="uni027B" unicode="ɻ"/><glyph d="M333-183q-53 0-89 14.5t-57.5 41-31 63.5-9.5 82v468h68l7-115h3q38 59 93.5 93T441 498q27 0 50-4.5t46-15.5l-19-71q-26 9-43.5 13t-46.5 4q-55 0-105.5-31.5T228 285V17q0-33 6-57.5T254-82t38-25.5 59-8.5 63 6 54 16l17-60q-33-12-68.5-20.5T333-183" glyph-name="uni027D" unicode="ɽ"/><glyph d="M146 0v249q0 60 18 106.5t51 78 80 48T401 498q81 0 136-20l-19-71q-31 11-55 14.5t-53 3.5q-36 0-69-11t-58-34.5-40-60-15-87.5V0z" glyph-name="uni027E" unicode="ɾ"/><glyph d="M99 0v486h240q39 0 73-7.5t58.5-24.5 38.5-44.5 14-67.5q0-63-36-98.5T400 196L545 0h-93L315 190H182V0zm83 254h143q55 0 85.5 21.5T441 340q0 44-30.5 62T325 420H182z" glyph-name="uni0280" unicode="ʀ"/><glyph d="M501 486V0H261q-39 0-73 7.5T129.5 32 91 76.5 77 144q0 63 36 98.5t87 47.5L55 486h93l137-190h133v190zm-83-254H275q-55 0-85.5-21.5T159 146q0-44 30.5-62T275 66h143z" glyph-name="uni0281" unicode="ʁ"/><glyph d="M197-183q-67 0-96.5 41T71-21v85l38 54q42-30 92.5-48T320 52q62 0 92.5 22.5T443 128q0 14-5 26t-21.5 23-46.5 21-79 20q-95 20-142.5 53.5T101 360q0 29 13 54.5t38.5 44 63 29T303 498q56 0 108-18.5t88-43.5l-40-53q-34 23-75 37t-88 14q-62 0-87-21t-25-49q0-32 33-48.5T325 283q61-13 100-27.5t61.5-32.5 31-40 8.5-50q0-30-14-56t-41.5-46-68-31.5T310-12q-45 0-87 9.5T145 23v-53q0-39 12.5-63t48.5-24q13 0 25 2.5t21 5.5l16-61q-12-5-30-9t-41-4" glyph-name="uni0282" unicode="ʂ"/><glyph d="M187-217q-40 0-71 9t-60 23l26 61q23-11 46-18.5t49-7.5q25 0 41.5 8.5T244-117t12.5 38.5T260-29v567q0 88 38 138t128 50q36 0 62-8.5t53-22.5l-23-61q-22 11-41 18t-42 7q-28 0-46-8.5T360.5 626 346 587.5t-4-49.5V-30q0-88-35-137.5T187-217" glyph-name="uni0283" unicode="ʃ"/><glyph d="M187-217q-40 0-71 9t-60 23l26 61q23-11 46-18.5t49-7.5q25 0 41.5 8.5T244-117t12.5 38.5T260-29v251H84v58l176 6v252q0 88 38 138t128 50q36 0 62-8.5t53-22.5l-23-61q-22 11-41 18t-42 7q-28 0-46-8.5T360.5 626 346 587.5t-4-49.5V286h174v-64H342V-30q0-88-35-137.5T187-217" glyph-name="uni0284" unicode="ʄ"/><glyph d="M206 498q53 0 89-14.5t58-41 31.5-63.5 9.5-82V67h137V5L391 0l-11-156h-68V0H73v67h239v231q0 65-26.5 99T189 431q-35 0-63-6t-54-16l-18 60q33 12 69.5 20.5T206 498" glyph-name="uni0287" unicode="ʇ"/><glyph d="M393-183q-53 0-89 14.5t-57.5 41-31 63.5-9.5 82v401H69v62l140 5 11 156h68V486h239v-67H288V17q0-33 6-57.5T314-82t38-25.5 59-8.5 63 6 54 16l18-60q-33-12-73-20.5t-80-8.5" glyph-name="uni0288" unicode="ʈ"/><glyph d="M272 60q38 0 66.5 19t63.5 63v112H180v-66q0-68 22-98t70-30m-26-72q-77 0-112.5 48T98 178v76H2v58l96 6v168h82V318h222v168h82V318h102v-64H484V0h-68l-6 76h-2q-35-41-73-64.5T246-12" glyph-name="uni0289" unicode="ʉ"/><glyph d="M300-12q-57 0-101 18.5T124.5 56 78 127t-16 82q0 37 8.5 68.5t22 57 30 46T156 417v2H50v67h195v-53q-43-36-71-85t-28-122q0-34 9.5-65t29-54T233 70t67-14 67 14 48.5 37 29 54 9.5 65q0 73-28 122t-71 85v53h195v-67H444v-2q16-16 33-36.5t30.5-46 22-57T538 209q0-42-16-82t-46.5-71T401 6.5 300-12" glyph-name="uni028A" unicode="ʊ"/><glyph d="M297-12q-47 0-87.5 13t-70 40.5-46 70T77 212v274h83V219q0-44 11-75t30-50.5T245.5 65t54.5-9q37 0 66 17t49 47.5 30 71.5 10 89q0 74-21.5 112.5T367 432q-14 0-19.5-1.5T332 426l-13 64q14 4 27.5 6t37.5 2q71 0 113.5-50T540 293q0-66-15.5-122t-46-96.5-76-63.5T297-12" glyph-name="uni028B" unicode="ʋ"/><glyph d="M344 486 549 0h-83L354 276q-15 37-28.5 72.5T299 419h-4q-13-35-25.5-70.5T242 276L130 0H51l201 486z" glyph-name="uni028C" unicode="ʌ"/><glyph d="M486 486 592 0h-82l-58 282q-7 35-12 67t-10 67h-4q-5-35-12.5-67.5T398 282L338 30h-82l-58 252q-8 35-16.5 67T168 416h-4q-6-35-10.5-67T142 282L84 0H8l104 486h106l56-232q12-51 24-144h4q12 93 24 144l54 232z" glyph-name="uni028D" unicode="ʍ"/><glyph d="m49 0 226 554q13 36 31 67t42 54 55 36 70 13q17 0 33.5-2.5T537 714l-18-65q-9 3-19.5 5t-22.5 2q-48 0-78.5-30T351 550l-27-63L551 0h-83L349 269q-14 32-29.5 69T289 410h-4q-13-35-26.5-71.5T233 269L127 0z" glyph-name="uni028E" unicode="ʎ"/><glyph d="M260 0v164L57 486h89l85-138q17-32 34.5-60.5T300 226h4q17 33 33 61.5t36 60.5l84 138h88L342 164V0z" glyph-name="uni028F" unicode="ʏ"/><glyph d="M559-183q-68 0-96 40.5T435-36V0H71v44l326 375H108v67h407v-44L188 67h329v-95q0-42 11-65t40-23q10 0 19 3t17 6l16-63q-11-5-26.5-9t-34.5-4" glyph-name="uni0290" unicode="ʐ"/><glyph d="m358-116-62 10q5 29 10.5 55.5T319 0H71v44l324 375H108v67h395v-44L180 67q45-1 83.5-1.5T339 65q57 151 153 151 39 0 64.5-24.5T582 126q0-54-39-90T426 0h-45q-6-25-12-53.5T358-116m87 180q37 0 56 17.5t19 40.5q0 17-9.5 25.5T486 156q-21 0-42.5-21T402 64z" glyph-name="uni0291" unicode="ʑ"/><glyph d="M288-217q-42 0-76 8t-62 21.5-50 30T59-123l40 53q16-15 34.5-29.5T174-125t48.5-17.5T281-149q33 0 63 11t52 31 35 48 13 63q0 65-43 101.5T277 142q-16 0-28-1.5t-22.5-4.5-21-8-24.5-11l-33 46 251 256H99v67h407v-44L268 194q24 6 43 6 51 0 91-14t67.5-39.5T512 85t15-79q0-54-20-95.5t-53-70-76.5-43T288-217" glyph-name="uni0292" unicode="ʒ"/><glyph d="M239 0v311q49 28 84.5 52t58 49 33.5 51.5 11 59.5q0 61-38.5 97T277 656q-57 0-96.5-24.5T115 575l-44 53q16 18 37 35.5t47 31 58 21.5 70 8q47 0 88.5-12.5t72-38 48.5-63 18-86.5q0-44-14-78t-39-63.5-60-55-76-52.5V0z" glyph-name="uni0294" unicode="ʔ"/><glyph d="M278 0v275q-42 27-76.5 52.5t-59.5 55-39 63.5-14 78q0 49 17.5 86.5t48.5 63 72 38 88 12.5q39 0 70.5-8t58-21.5 47-31T527 628l-43-53q-27 32-66.5 56.5T321 656q-71 0-110-36t-39-97q0-33 11-59.5t34-51.5 58.5-49 84.5-52V0z" glyph-name="uni0295" unicode="ʕ"/><glyph d="M300-12q-55 0-99 22t-75.5 67.5T77 193 60 359q0 89 17 157.5T125.5 631t75.5 69.5 99 23.5 99.5-23.5 76-69.5T524 516.5 541 359q0-96-17-166T475.5 77.5t-76-67.5T300-12m0 68q34 0 64 16t51.5 52 34 93.5T462 359q0 76-12.5 132t-34 93-51.5 54.5-64 17.5q-35 0-64.5-17.5t-51-54.5-34-93T138 359q0-84 12.5-141.5t34-93.5 51-52T300 56m0 240q-25 0-43.5 18T238 359q0 29 18.5 46.5T300 423t43.5-17.5T362 359q0-27-18.5-45T300 296" glyph-name="uni0298" unicode="ʘ"/><glyph d="M115 0v486h225q42 0 77-7t59.5-21.5 38.5-38 14-56.5q0-41-23-66.5T444 259v-3q21-5 40.5-14t34-23.5 23-34T550 139q0-36-15-62t-42-43.5T429 8t-81-8zm81 284h130q66 0 94.5 18.5T449 355t-27.5 49.5T332 420H196zm0-218h143q66 0 97.5 18.5T468 144q0 76-134 76H196z" glyph-name="uni0299" unicode="ʙ"/><glyph d="M93 0v486h82V289h250v197h82V0h-82v216H175V0z" glyph-name="uni029C" unicode="ʜ"/><glyph d="M418-250q-15 29-30.5 52T355-155q-24-29-62-45.5T201-217q-70 0-107.5 33T56-106t33 72.5T185-6q32 0 65-8t66-25v458H90v67h308V-20q0-41-10-72 26-24 49.5-55.5T482-220zm-218 98q40 0 64 13.5t36 34.5q-29 21-58 30t-58 9q-32 0-47-11.5T122-105q0-20 20-33.5t58-13.5m148 740q-28 0-47 17.5T282 652t19 46.5 47 17.5 47-17.5 19-46.5-19-46.5-47-17.5" glyph-name="uni029D" unicode="ʝ"/><glyph d="M412-205v461h-4L127 0H28l218 201L54 486h85l159-237 114 105v132h82v-691z" glyph-name="uni029E" unicode="ʞ"/><glyph d="M148 0v486h82V67h302V0z" glyph-name="uni029F" unicode="ʟ"/><glyph d="M239 0v251H74v58l76 5h102q83 48 128.5 98.5T426 523q0 61-37.5 97T281 656q-58 0-98-25t-68-56l-44 53q16 18 37.5 35t48 30.5 59 22T287 724q46 0 87-12.5t71-38 47.5-63T510 524q0-36-12-66t-31.5-55.5-46-47.5-54.5-41h152v-63H321V0z" glyph-name="uni02A1" unicode="ʡ"/><glyph d="M279 0v251H82v58l76 5h76q-29 19-55 41t-45.5 47.5T102 458t-12 66q0 49 17.5 86.5t47.5 63 70.5 38T313 724q39 0 71.5-8.5t59-22T491 663t38-35l-44-53q-28 31-68 56t-98 25q-70 0-108-36t-38-97q0-60 46-110.5T347 314h179v-63H361V0z" glyph-name="uni02A2" unicode="ʢ"/><glyph d="M172 57q26 0 45.5 21t34.5 54v240q-17 27-33.5 42T178 429q-21 0-39-13.5t-30.5-38-19.5-59-7-75.5q0-87 22.5-136.5T172 57m278-274q-50 0-83 16.5T308-158l39 52q20-20 42.5-31.5T444-149q41 0 66.5 37T536 0q0 63-22.5 97.5T447 132q-16 0-26-3.5T397 117l-33 52 146 250H328V0h-59l-7 58h-3q-16-27-42.5-48.5T155-12q-34 0-62.5 17t-49 50-32 80T0 242q0 58 13.5 105.5t36 81 52 51.5 62.5 18q30 0 52.5-15t37.5-41h2l-4 93v177h76V486h269v-44L456 195q4 1 12 1 36 0 63.5-15.5t47-42T608 76t10-76q0-52-13-92.5t-35.5-68-53.5-42-66-14.5" glyph-name="uni02A4" unicode="ʤ"/><glyph d="M328-12Q263-12 219 .5T148 37t-38.5 59T98 176v243H25v62l76 5 10 156h69V486h188q30 12 68 12 37 0 69.5-12.5T564 450l-32-48q-22 17-43 26t-47 9q-29 0-46.5-15T378 379q0-23 14-38.5t35.5-28.5 46.5-27 46.5-34 35.5-48 14-70q0-34-13-61t-41.5-45.5T441-2 328-12m4 64q92 0 127.5 22t35.5 60q0 31-14.5 52t-36 36.5-47 29.5-47 31-36 40-14.5 58q0 20 5 38H180V175q0-33 7.5-56T213 81t47-22 72-7" glyph-name="uni02A6" unicode="ʦ"/><glyph d="M353-217q-22 0-39.5 4t-30.5 9l17 62q9-3 21-5.5t25-2.5q34 0 45 25t11 70v474H203V149q0-45 15-69.5T272 55q14 0 29 4t29 9l15-62q-20-7-42.5-12.5T257-12q-38 0-64.5 12T150 33t-23 51-7 66v269H48v62l75 5 11 156h69V486h199v80q0 73 32.5 116.5T543 726q19 0 34-4t26-9l-16-63q-8 3-17 6t-19 3q-41 0-54-25.5T484 563V-55q0-74-30.5-118T353-217" glyph-name="uni02A7" unicode="ʧ"/><glyph d="M175 395v471h64V737l-4-69q24 23 52 39.5t64 16.5q57 0 83-32.5t26-94.5V395h-64v194q0 42-15.5 61.5T329 670q-26 0-45.5-12.5T239 621V395z" glyph-name="h.sups" unicode="ʰ"/><glyph d="M229 254q-26 0-48.5 6.5T140 276l20 47q17-9 34-13.5t32-4.5q47 0 63 21.5t16 61.5v278H163v50h206V392q0-30-6.5-55t-23-43.5-43.5-29-67-10.5m103 525q-21 0-35 12.5T283 824q0 21 14 34t35 13 34.5-13 13.5-34q0-20-13.5-32.5T332 779" glyph-name="j.sups" unicode="ʲ"/><glyph d="M243 395v321h54l5-75h2q23 39 56 61t72 22q35 0 64-13l-13-54q-17 5-29.5 7.5T423 667q-31 0-61.5-20T307 577V395z" glyph-name="r.sups" unicode="ʳ"/><glyph d="M141 395 52 716h64l44-179 20-91h3l22 91 48 179h56l50-179 21-91h4l21 91 43 179h59l-87-321h-75l-42 163-22 91h-2l-20-91-44-163z" glyph-name="w.sups" unicode="ʷ"/><glyph d="M198 258q-13 0-23.5 2t-19.5 5l13 50q5-2 12-3.5t14-1.5q29 0 47.5 18t29.5 45l7 23-138 320h64l69-169q8-21 16.5-44.5T307 456h2q8 22 14.5 45.5T338 547l60 169h62L330 373q-9-25-21-46t-28-36.5-36.5-24T198 258" glyph-name="y.sups" unicode="ʸ"/><glyph d="m257 434 22 256h81l-15-100-34-156z" glyph-name="uni02B9" unicode="ʹ"/><glyph d="M299 350q-39 0-64.5 31.5T209 470q0 75 38 134.5T353 699l27-48q-46-27-73-66.5T277 493q12 6 26 6 31 0 50.5-20t19.5-52q0-35-21-56t-53-21" glyph-name="uni02BB" unicode="ʻ"/><glyph d="m245 350-28 48q47 26 74 65.5t30 92.5q-12-6-26-6-32 0-51.5 19.5T224 621q0 35 21 56.5t53 21.5q40 0 65-32t25-89q0-75-38-134t-105-94" glyph-name="uni02BC" unicode="ʼ"/><glyph d="M226 538v50q58 0 88 24.5t30 69.5-30 70-88 25v49q91 3 137.5-36T410 682t-46.5-108T226 538" glyph-name="uni02BE" unicode="ʾ"/><glyph d="M374 538q-91-3-137.5 36T190 682t46.5 108T374 826v-49q-58 0-88-25t-30-70 30-69.5 88-24.5z" glyph-name="uni02BF" unicode="ʿ"/><glyph d="M282 438v91q-25 16-47.5 33.5t-39 37.5-26 43.5T160 696q0 32 12.5 56.5t34 41 49.5 25 59 8.5q48 0 81.5-18t55.5-41l-34-40q-19 19-42.5 32.5T320 774q-43 0-69.5-21T224 695q0-42 30-74.5t91-64.5V438z" glyph-name="uni02C1" unicode="ˁ"/><glyph d="m180 568-35 32 114 140h82l114-140-35-32-118 113h-4z" glyph-name="circumflex" unicode="ˆ"/><glyph d="M259 574 145 714l35 32 118-113h4l118 113 35-32-114-140z" glyph-name="caron" unicode="ˇ"/><glyph d="m272 397-23 319h102l-23-319z" glyph-name="uni02C8" unicode="ˈ"/><glyph d="M167 601v57h266v-57z" glyph-name="uni02C9" unicode="ˉ"/><glyph d="m279 568-43 41 142 168 58-56z" glyph-name="uni02CA" unicode="ˊ"/><glyph d="M321 568 164 721l58 56 142-168z" glyph-name="uni02CB" unicode="ˋ"/><glyph d="m249-254 23 320h56l23-320z" glyph-name="uni02CC" unicode="ˌ"/><glyph d="m202 0 93 162h10L398 0zm93 343-93 160h196l-93-160z" glyph-name="uni02D0" unicode="ː"/><glyph d="m295 343-93 160h196l-93-160z" glyph-name="uni02D1" unicode="ˑ"/><glyph d="M300 571q-40 0-69 13t-47.5 34.5-28 48.5-11.5 55l51 8q3-19 10.5-37.5T226 659t31.5-24 42.5-9 42.5 9 31.5 24 20.5 33.5T405 730l51-8q-2-28-11.5-55T416 618.5 368.5 584 300 571" glyph-name="breve" unicode="˘"/><glyph d="M300 588q-28 0-47 17.5T234 652t19 46.5 47 17.5 47-17.5 19-46.5-19-46.5-47-17.5" glyph-name="dotaccent" unicode="˙"/><glyph d="M300 569q-52 0-81 27.5T190 665t29 68.5 81 27.5 81-27.5 29-68.5-29-68.5-81-27.5m0 37q24 0 40.5 17t16.5 42q0 26-16.5 42.5T300 724t-40.5-16.5T243 665q0-25 16.5-42t40.5-17" glyph-name="ring" unicode="˚"/><glyph d="M312-225q-44 0-73 22.5T210-132q0 23 8 43t20.5 37T266-21.5 295 3h58q-38-27-60-56.5T271-116q0-29 18-42t40-13q18 0 31.5 6.5T383-150l24-39q-17-16-41-26t-54-10" glyph-name="ogonek" unicode="˛"/><glyph d="M372 577q-27 0-46 13t-35 29-30.5 29-31.5 13q-23 0-34-22t-13-57l-55 3q1 29 7.5 54t18.5 43 30.5 28.5T228 721q27 0 46-13t35-29 30.5-29 32.5-13q22 0 33 22t13 57l55-4q-1-29-7.5-53.5T447 616t-30.5-28.5T372 577" glyph-name="tilde" unicode="˜"/><glyph d="m243 568-46 21 87 172 58-28zm151 0-46 21 87 172 58-28z" glyph-name="hungarumlaut" unicode="˝"/><glyph d="M329 230q-32 0-57 21t-39 75l-105-43v63l146 60q5-38 11.5-62.5t14-38T316 287t19-5q12 0 21 4.5t17 10.5l22-43q-12-9-28-16.5t-38-7.5" glyph-name="uni02DE" unicode="˞"/><glyph d="M301 249q-39 0-60 21.5T220 328q0 23 10.5 46.5T260 433L146 717h65l59-166q8-23 15-41.5t14-40.5h3q8 22 15 40.5t15 41.5l59 166h63L341 434q19-35 29.5-59t10.5-47q0-36-20.5-57.5T301 249m0 42q14 0 20.5 9t6.5 23q0 34-26 81h-3q-12-23-19-44t-7-37q0-14 7-23t21-9" glyph-name="uni02E0" unicode="ˠ"/><glyph d="M381 387q-54 0-79 29.5T277 503v312h-81v51h145V499q0-32 14.5-46t40.5-14q20 0 50 10l12-49q-20-5-37-9t-40-4" glyph-name="l.sups" unicode="ˡ"/><glyph d="M308 387q-43 0-81 13t-65 32l30 41q26-18 53.5-28t64.5-10q40 0 59 13t19 32q0 12-7.5 20.5t-20 15T332 527l-32 10q-21 7-42.5 15T219 570.5 191 596t-11 35q0 40 35.5 66.5T315 724q36 0 67.5-11t54.5-26l-30-40q-20 13-42.5 21t-49.5 8q-38 0-54.5-12.5T244 634q0-10 7-17.5t19-13.5 27-11 31-10q22-7 44-14.5t39.5-18.5 28.5-26.5 11-38.5q0-40-36.5-68.5T308 387" glyph-name="s.sups" unicode="ˢ"/><glyph d="m159 395 111 168-102 153h68l43-66q8-14 16.5-27t16.5-27h3q8 14 15.5 27t15.5 27l38 66h68L348 556l111-161h-69l-47 69q-8 15-18 29.5T305 522h-2q-8-14-16.5-28.5T269 464l-43-69z" glyph-name="x.sups" unicode="ˣ"/><glyph d="M282 395v179q-25 16-47.5 33.5t-39 37.5-26 43.5T160 741q0 31 12.5 55.5t34 41 49.5 25 59 8.5q48 0 81.5-18t55.5-41l-34-40q-19 19-42.5 32.5T320 818q-43 0-69.5-21T224 739q0-42 30-74.5t91-64.5V395z" glyph-name="uni02E4" unicode="ˤ"/><glyph d="M321 568 164 721l58 56 142-168z" glyph-name="uni0300" unicode="̀"/><glyph d="m279 568-43 41 142 168 58-56z" glyph-name="uni0301" unicode="́"/><glyph d="m180 568-35 32 114 140h82l114-140-35-32-118 113h-4z" glyph-name="uni0302" unicode="̂"/><glyph d="M372 577q-27 0-46 13t-35 29-30.5 29-31.5 13q-23 0-34-22t-13-57l-55 3q1 29 7.5 54t18.5 43 30.5 28.5T228 721q27 0 46-13t35-29 30.5-29 32.5-13q22 0 33 22t13 57l55-4q-1-29-7.5-53.5T447 616t-30.5-28.5T372 577" glyph-name="uni0303" unicode="̃"/><glyph d="M167 601v57h266v-57z" glyph-name="uni0304" unicode="̄"/><glyph d="M167 601v57h266v-57z" glyph-name="uni0305" unicode="̅"/><glyph d="M300 571q-40 0-69 13t-47.5 34.5-28 48.5-11.5 55l51 8q3-19 10.5-37.5T226 659t31.5-24 42.5-9 42.5 9 31.5 24 20.5 33.5T405 730l51-8q-2-28-11.5-55T416 618.5 368.5 584 300 571" glyph-name="uni0306" unicode="̆"/><glyph d="M300 588q-28 0-47 17.5T234 652t19 46.5 47 17.5 47-17.5 19-46.5-19-46.5-47-17.5" glyph-name="uni0307" unicode="̇"/><glyph d="M203 588q-24 0-39.5 16T148 644q0 23 15.5 39.5T203 700t39.5-16.5T258 644q0-24-15.5-40T203 588m194 0q-24 0-39.5 16T342 644q0 23 15.5 39.5T397 700t39.5-16.5T452 644q0-24-15.5-40T397 588" glyph-name="uni0308" unicode="̈"/><glyph d="m268 572-9 40q24 6 40 16.5t16 30.5q0 43-83 47l5 54q69-2 106-25.5t37-68.5q0-22-9.5-37.5t-25-27T310 583t-42-11" glyph-name="uni0309" unicode="̉"/><glyph d="M300 569q-52 0-81 27.5T190 665t29 68.5 81 27.5 81-27.5 29-68.5-29-68.5-81-27.5m0 37q24 0 40.5 17t16.5 42q0 26-16.5 42.5T300 724t-40.5-16.5T243 665q0-25 16.5-42t40.5-17" glyph-name="uni030A" unicode="̊"/><glyph d="m243 568-46 21 87 172 58-28zm151 0-46 21 87 172 58-28z" glyph-name="uni030B" unicode="̋"/><glyph d="M259 574 145 714l35 32 118-113h4l118 113 35-32-114-140z" glyph-name="uni030C" unicode="̌"/><glyph d="m206 568-99 165 58 28 87-172zm151 0-99 165 58 28 87-172z" glyph-name="uni030F" unicode="̏"/><glyph d="M300 571q-41 0-70.5 13t-49 34.5T151 667t-12 55l48 8q3-20 11-39.5t22-34.5 34-24.5 46-9.5q25 0 45 9.5t34.5 24.5 22.5 34.5 11 39.5l48-8q-2-28-12-55t-29.5-48.5-49-34.5-70.5-13m0 130q-24 0-40 15t-16 41 16 41 40 15 40-15 16-41-16-41-40-15" glyph-name="uni0310" unicode="̐"/><glyph d="m195 568-51 8q2 28 11.5 55t28 48.5T231 714t69 13 68.5-13 47.5-34.5 28.5-48.5 11.5-55l-51-8q-3 19-10.5 37.5T374 639t-31.5 24-42.5 9-42.5-9-31.5-24-20.5-33.5T195 568" glyph-name="uni0311" unicode="̑"/><glyph d="M303 553q-26 0-42 19.5T245 628q0 37 21 68.5t69 50.5l18-34q-32-14-47-32t-15-38q8 2 13 2 17 0 31-10.5t14-33.5-13-35.5-33-12.5" glyph-name="uni0312" unicode="̒"/><glyph d="m265 553-18 34q32 14 47 32t15 38q-8-2-13-2-17 0-31 10.5T251 699t13 35.5 33 12.5q26 0 42-19.5t16-55.5q0-37-21-68.5T265 553" glyph-name="uni0313" unicode="̓"/><glyph d="M339-249v72H224v47h115v72h53v-191z" glyph-name="uni0318" unicode="̘"/><glyph d="M208-249v191h53v-72h115v-47H261v-72z" glyph-name="uni0319" unicode="̙"/><glyph d="M335 573v94H224v47h161V573z" glyph-name="uni031A" unicode="̚"/><glyph d="m299 434-8 41q84 13 84 90 0 15-4 28t-10 27l64 30q10-18 16.5-37t6.5-42q0-32-12-55.5T404 475t-47-27-58-14" glyph-name="uni031B" unicode="̛"/><glyph d="M362-257q-69-2-103.5 24T224-162q0 46 34.5 72T362-66v-36q-38 0-57.5-16T285-162q0-27 19.5-43t57.5-16z" glyph-name="uni031C" unicode="̜"/><glyph d="M184-211v47h89v106h54v-106h89v-47z" glyph-name="uni031D" unicode="̝"/><glyph d="M273-249v106h-89v47h232v-47h-89v-106z" glyph-name="uni031E" unicode="̞"/><glyph d="M273-249v72h-89v47h89v72h54v-72h89v-47h-89v-72z" glyph-name="uni031F" unicode="̟"/><glyph d="M184-150v47h232v-47z" glyph-name="uni0320" unicode="̠"/><glyph d="M300-214q-28 0-47 17.5T234-150t19 46.5T300-86t47-17.5 19-46.5-19-46.5-47-17.5" glyph-name="uni0323" unicode="̣"/><glyph d="M203-207q-24 0-39.5 16T148-151q0 23 15.5 39.5T203-95t39.5-16.5T258-151q0-24-15.5-40T203-207m194 0q-24 0-39.5 16T342-151q0 23 15.5 39.5T397-95t39.5-16.5T452-151q0-24-15.5-40T397-207" glyph-name="uni0324" unicode="̤"/><glyph d="M300-243q-52 0-81 27.5T190-147t29 68.5T300-51t81-27.5 29-68.5-29-68.5-81-27.5m0 37q24 0 40.5 17t16.5 42q0 26-16.5 42.5T300-88t-40.5-16.5T243-147q0-25 16.5-42t40.5-17" glyph-name="uni0325" unicode="̥"/><glyph d="m213-226-8 40q63 5 86 16.5t23 31.5-18 29.5T243-96l18 38q65-8 91-25.5t26-51.5q0-44-42.5-65.5T213-226" glyph-name="uni0326" unicode="̦"/><glyph d="m213-226-8 40q63 5 86 16.5t23 33.5q0 20-17 31t-60 17l40 96h54l-26-72q35-8 54-24t19-47q0-44-42.5-65.5T213-226" glyph-name="uni0327" unicode="̧"/><glyph d="M312-225q-44 0-73 22.5T210-132q0 23 8 43t20.5 37T266-21.5 295 3h58q-38-27-60-56.5T271-116q0-29 18-42t40-13q18 0 31.5 6.5T383-150l24-39q-17-16-41-26t-54-10" glyph-name="uni0328" unicode="̨"/><glyph d="m265-266 6 195h58l6-195z" glyph-name="uni0329" unicode="̩"/><glyph d="M177-226v144h246v-144h-48v97H225v-97z" glyph-name="uni032A" unicode="̪"/><glyph d="M259-223 145-83l35 32 118-113h4L420-51l35-32-114-140z" glyph-name="uni032C" unicode="̬"/><glyph d="M300-230q-40 0-69 13t-47.5 34.5-28 48.5T144-79l51 8q3-19 10.5-37.5T226-142t31.5-24 42.5-9 42.5 9 31.5 24 20.5 33.5T405-71l51-8q-2-28-11.5-55T416-182.5 368.5-217 300-230" glyph-name="uni032E" unicode="̮"/><glyph d="m195-236-51 8q2 28 11.5 55t28 48.5T231-90t69 13 68.5-13 47.5-34.5 28.5-48.5 11.5-55l-51-8q-3 19-10.5 37.5T374-165t-31.5 24-42.5 9-42.5-9-31.5-24-20.5-33.5T195-236" glyph-name="uni032F" unicode="̯"/><glyph d="M372-222q-27 0-46 13t-35 29-30.5 29-31.5 13q-23 0-34-22t-13-57l-55 3q1 29 7.5 54t18.5 43 30.5 28.5T228-78q27 0 46-13t35-29 30.5-29 32.5-13q22 0 33 22t13 57l55-4q-1-29-7.5-53.5T447-183t-30.5-28.5T372-222" glyph-name="uni0330" unicode="̰"/><glyph d="M167-169v57h266v-57z" glyph-name="uni0331" unicode="̱"/><glyph d="M394 173q-33 0-57 13t-44.5 29-39.5 29-41 13-33-21.5-13-56.5l-55 10q1 27 7 50.5t17.5 40.5 29 27 41.5 10q33 0 57.5-13t45-29 39-29 40.5-13 33 21.5 13 55.5l55-9q-2-27-7.5-50.5t-17-40.5-29-27-41.5-10" glyph-name="uni0334" unicode="̴"/><glyph d="M238-257v36q38 0 57.5 16t19.5 43q0 28-19.5 44T238-102v36q69 2 103.5-24t34.5-72q0-45-34.5-71T238-257" glyph-name="uni0339" unicode="̹"/><glyph d="M177-225v143h48v-96h150v96h48v-143z" glyph-name="uni033A" unicode="̺"/><glyph d="M177-240v163h246v-163zm48 40h150v84H225z" glyph-name="uni033B" unicode="̻"/><glyph d="m182-234-52 6q-1 78 24 113t73 35q26 0 45-13t27-45h2q8 32 27.5 45T373-80q48 0 73-35t24-113l-52-6q0 60-13 80t-36 20-34-21-11-59v-19h-48v19q0 38-11.5 59T230-134t-35.5-20-12.5-80" glyph-name="uni033C" unicode="̼"/><glyph d="m238 565-32 30 61 57-61 57 32 30 62-58 62 58 32-30-61-57 61-57-32-30-62 58z" glyph-name="uni033D" unicode="̽"/><glyph d="M372 577q-27 0-46 13t-35 29-30.5 29-31.5 13q-23 0-34-22t-13-57l-55 3q1 29 7.5 54t18.5 43 30.5 28.5T228 721q27 0 46-13t35-29 30.5-29 32.5-13q22 0 33 22t13 57l55-4q-1-29-7.5-53.5T447 616t-30.5-28.5T372 577" glyph-name="uni0342" unicode="͂"/><glyph d="M344-201q-77 0-77 92v47h64q-2-13-2-27.5V-115q0-17 9-24t21-7q4 0 8 .5t14 2.5l9-49q-10-4-19.5-6.5T344-201" glyph-name="uni0345" unicode="ͅ"/><glyph d="M-193-171v58h986v-58z" glyph-name="uni035F" unicode="͟"/><glyph d="m-130 600-24 42q101 62 213.5 94.5T300 769t240.5-32.5T754 642l-24-42q-96 58-208.5 84.5T300 711 78.5 684.5-130 600" glyph-name="uni0361" unicode="͡"/><glyph d="m257 449 22 241h81l-14-92-35-149z" glyph-name="uni0374" unicode="ʹ"/><glyph d="m240 0 14 92 35 150h54L321 0z" glyph-name="uni0375" unicode="͵"/><glyph d="M344-201q-77 0-77 92v47h64q-2-13-2-27.5V-115q0-17 9-24t21-7q4 0 8 .5t14 2.5l9-49q-10-4-19.5-6.5T344-201" glyph-name="uni037A" unicode="ͺ"/><glyph d="M300 346q-34 0-57.5 23T219 430t23.5 61.5T300 515t57.5-23.5T381 430t-23.5-61-57.5-23m-80-559-23 52q62 28 93 67.5T323 6q-5-2-9.5-2H304q-32 0-55 18.5T226 79q0 37 24 56.5t56 19.5q45 0 67.5-34.5T396 27q0-88-46.5-148.5T220-213" glyph-name="uni037E" unicode=";"/><glyph d="m322 559-57 10 47 230 85-15z" glyph-name="tonos" unicode="΄"/><glyph d="M185 595q-20 0-33 11.5T139 638q0 21 13 33.5t33 12.5 33-12.5 13-33.5q0-20-13-31.5T185 595m73-22 49 226 68-13-75-222zm157 22q-20 0-33 11.5T369 638q0 21 13 33.5t33 12.5 33-12.5 13-33.5q0-20-13-31.5T415 595" glyph-name="dieresistonos" unicode="΅"/><glyph d="m248 367-30-100h183l-29 100q-16 55-30.5 104.5T312 580h-4q-16-59-30-108.5T248 367M54 0l210 656h94L568 0h-88l-59 200H198L139 0zm39 389-57 10 36 291 79-10z" glyph-name="Alphatonos" unicode="Ά"/><glyph d="M300 340q-34 0-57.5 23T219 424t23.5 61.5T300 509t57.5-23.5T381 424t-23.5-61-57.5-23" glyph-name="anoteleia" unicode="·"/><glyph d="M200 0v656h320v-70H276V380h194v-71H276V71h254V0zM81 389l-57 10 36 291 79-10z" glyph-name="Epsilontonos" unicode="Έ"/><glyph d="M194 0v656h76V381h182v275h76V0h-76v309H270V0zM81 389l-57 10 36 291 79-10z" glyph-name="Etatonos" unicode="Ή"/><glyph d="M185 0v71h118v515H185v70h320v-70H386V71h119V0zM81 389l-57 10 36 291 79-10z" glyph-name="Iotatonos" unicode="Ί"/><glyph d="M348-12q-45 0-82 23t-64 67-42 108-15 145q0 82 15 145t42 106 64 64.5 82 21.5 82.5-21.5T495 582t42-106 15-145q0-83-15-147T495 76.5t-64.5-66T348-12m0 73q56 0 89.5 66.5T471 331q0 135-34 199.5T348 595t-88.5-64T226 331q0-137 33.5-203.5T348 61M81 389l-57 10 36 291 79-10z" glyph-name="Omicrontonos" unicode="Ό"/><glyph d="M357 0v234L188 656h77l73-195q15-42 28.5-78.5T394 308h4q14 38 27.5 76t27.5 77l75 195h74L433 234V0zM97 389l-57 10 36 291 79-10z" glyph-name="Upsilontonos" unicode="Ύ"/><glyph d="M134 0v68h99v4q-42 60-65 129.5T145 365q0 66 14.5 121.5t40.5 96 63.5 63T347 668t83.5-22.5 64-63 40.5-96T549 365q0-94-23-163.5T461 72v-4h99V0H388v61q39 59 59.5 127.5T468 352q0 55-8 99.5T436.5 528t-38 49.5T347 595t-51.5-17.5-38-49.5-23.5-76.5-8-99.5q0-95 20.5-163.5T306 61V0zM81 389l-57 10 36 291 79-10z" glyph-name="Omegatonos" unicode="Ώ"/><glyph d="M400-12q-81 0-117 44t-36 131v256H81v67h249q-1-41-2-84t-2-85.5-1.5-83-.5-76.5q0-53 23.5-77T418 56q19 0 41 4.5T504 76l21-61Q499 3 469.5-4.5T400-12M168 595q-20 0-33 11.5T122 638q0 21 13 33.5t33 12.5 33-12.5 13-33.5q0-20-13-31.5T168 595m73-22 49 226 68-13-75-222zm157 22q-20 0-33 11.5T352 638q0 21 13 33.5t33 12.5 33-12.5 13-33.5q0-20-13-31.5T398 595" glyph-name="iotadieresistonos" unicode="ΐ"/><glyph d="m232 367-31-100h196l-31 100q-17 55-33.5 109.5T301 588h-4q-16-57-32-111.5T232 367M32 0l221 656h94L568 0h-88l-62 200H180L117 0z" glyph-name="Alpha" unicode="Α"/><glyph d="M99 0v656h186q50 0 91.5-9t71-28 46-49.5T510 496q0-49-28-88.5T395 353v-4q72-11 112-50t40-107q0-48-18-84t-50.5-60-78-36T300 0zm83 380h89q84 0 120.5 27t36.5 82q0 54-38.5 75.5T275 586h-93zm0-310h106q85 0 131 29.5t46 96.5q0 61-45 87.5T288 310H182z" glyph-name="Beta" unicode="Β"/><glyph d="M135 0v656h400v-70H218V0z" glyph-name="Gamma" unicode="Γ"/><glyph d="M43 0v50l209 606h96L557 50V0zm91 71h331l-97 293q-17 54-33.5 109T301 585h-4q-17-57-33.5-112T230 364z" glyph-name="uni0394" unicode="Δ"/><glyph d="M114 0v656h406v-70H198V380h272v-71H198V71h332V0z" glyph-name="Epsilon" unicode="Ε"/><glyph d="M65 0v50l366 537H97v70h437v-50L167 71h372V0z" glyph-name="Zeta" unicode="Ζ"/><glyph d="M79 0v656h84V381h274v275h84V0h-84v309H163V0z" glyph-name="Eta" unicode="Η"/><glyph d="M300-12q-56 0-102 24t-79.5 68.5-52 108T48 331t18.5 141.5 52 106T198 645t102 23q55 0 101.5-23.5t80-67 52-106T552 331q0-79-18.5-142.5t-52-108-80-68.5T300-12m0 73q37 0 68 19t52.5 54.5 33.5 85T466 331q0 61-12 110t-33.5 83-52.5 52.5-68 18.5q-38 0-68.5-18.5t-52-52.5-33.5-83-12-110q0-62 12-111.5t33.5-85 52-54.5T300 61m-99 248v72h198v-72z" glyph-name="Theta" unicode="Θ"/><glyph d="M95 0v71h163v515H95v70h410v-70H342V71h163V0z" glyph-name="Iota" unicode="Ι"/><glyph d="M98 0v656h84V327h3l276 329h95L348 407 580 0h-94L295 344 182 209V0z" glyph-name="Kappa" unicode="Κ"/><glyph d="m43 0 208 656h97L557 0h-88L363 355q-17 58-31 108.5T300 572h-4q-18-58-32-108.5T233 355L128 0z" glyph-name="Lambda" unicode="Λ"/><glyph d="M72 0v656h102l92-280 32-106h4l31 106 93 280h102V0h-80v328q0 24 1.5 55.5t4 63.5 4.5 62 4 51h-3l-37-128-94-258h-60l-92 258-38 128h-2q2-21 4.5-51t4.5-62 3.5-63.5T150 328V0z" glyph-name="Mu" unicode="Μ"/><glyph d="M82 0v656h92l210-412 63-136h2q-2 49-6.5 102.5T438 316v340h80V0h-92L216 412l-63 136h-2q2-51 6.5-102.5T162 343V0z" glyph-name="Nu" unicode="Ν"/><glyph d="M70 0v71h460V0zm75 309v71h310v-71zM80 586v70h440v-70z" glyph-name="Xi" unicode="Ξ"/><glyph d="M300-12q-56 0-102 23.5T118.5 79t-52 107.5T48 331q0 79 18.5 142t52 106 79.5 66 102 23q55 0 101.5-23t80-66 52-106T552 331q0-81-18.5-144.5T481.5 79t-80-67.5T300-12m0 73q37 0 68 18.5t52.5 53.5 33.5 85 12 113q0 62-12 111t-33.5 83-52.5 52-68 18q-38 0-68.5-18t-52-52-33.5-83-12-111q0-63 12-113t33.5-85 52-53.5T300 61" glyph-name="Omicron" unicode="Ο"/><glyph d="M79 0v656h442V0h-84v586H163V0z" glyph-name="Pi" unicode="Π"/><glyph d="M102 0v656h198q54 0 99-10t77-32.5 49.5-59.5 17.5-91q0-52-17.5-90t-50-63-77-37.5T300 260H185V0zm83 328h105q87 0 128 32.5T459 463q0 71-42 98.5T290 589H185z" glyph-name="Rho" unicode="Ρ"/><glyph d="M75 0v50l226 283L79 607v49h423v-70H185l201-251L181 71h351V0z" glyph-name="Sigma" unicode="Σ"/><glyph d="M258 0v586H42v70h516v-70H342V0z" glyph-name="Tau" unicode="Τ"/><glyph d="M258 0v234L38 656h88l99-195q19-38 37-75.5t38-77.5h4l39 78 38 76 95 194h86L342 234V0z" glyph-name="Upsilon" unicode="Υ"/><glyph d="M106 332q0-87 41.5-141T262 131v395q-73-6-114.5-57.5T106 332m388 0q0 85-42 136.5T338 526V131q36 3 65 18.5t49 42 31 62 11 78.5M262-22v88q-54 3-97.5 23t-74 54T43 224.5 26 332q0 58 17 105t47.5 80 74 52 97.5 22v87h76v-87q54-3 97.5-22t74-52 47.5-80 17-105q0-60-17-107.5T509.5 143t-74-54T338 66v-88z" glyph-name="Phi" unicode="Φ"/><glyph d="m54 0 196 339L67 656h92l92-168q13-23 25-44.5t28-50.5h4q14 29 24.5 50.5T355 488l90 168h88L350 335 546 0h-92l-99 177q-14 24-27.5 49.5T297 282h-4q-14-30-27-55.5T240 177L142 0z" glyph-name="Chi" unicode="Χ"/><glyph d="M258 0v243q-100 5-157 63T44 480v176h80V484q0-164 134-174v346h84V310q134 10 134 174v172h80V480q0-116-57-174t-157-63V0z" glyph-name="Psi" unicode="Ψ"/><glyph d="M38 0v68h121v4q-21 20-40.5 47.5T83 182t-25.5 77-9.5 92q0 69 17.5 127T116 578.5t79.5 66T300 668t104.5-23.5 79.5-66T534.5 478 552 351q0-50-9.5-92T517 182t-35.5-62.5T441 72v-4h121V0H352v61q24 24 45 52t36.5 62.5 24 76.5 8.5 94q0 53-11 98.5t-32 79-52 52.5-71 19-71-19-52-52.5-32-79-11-98.5q0-52 8.5-94t24-76.5T203 113t45-52V0z" glyph-name="uni03A9" unicode="Ω"/><glyph d="M95 0v71h163v515H95v70h410v-70H342V71h163V0zm114 715q-22 0-36.5 14T158 766t14.5 36.5T209 816t36-13.5 14-36.5-14-37-36-14m182 0q-22 0-36 14t-14 37 14 36.5 36 13.5 36.5-13.5T442 766t-14.5-37-36.5-14" glyph-name="Iotadieresis" unicode="Ϊ"/><glyph d="M258 0v234L38 656h88l99-195q19-38 37-75.5t38-77.5h4l39 78 38 76 95 194h86L342 234V0zm-49 715q-22 0-36.5 14T158 766t14.5 36.5T209 816t36-13.5 14-36.5-14-37-36-14m182 0q-22 0-36 14t-14 37 14 36.5 36 13.5 36.5-13.5T442 766t-14.5-37-36.5-14" glyph-name="Upsilondieresis" unicode="Ϋ"/><glyph d="M253-12q-44 0-80 16t-61.5 47.5-40 77T57 234q0 63 18 112t48 82.5 69.5 51.5 82.5 18q25 0 49.5-6.5t46-21.5 38.5-39.5 28-59.5h3l20 115h82q-10-48-20.5-100.5T502 282t-15-96.5-6-78.5q0-25 14-38t34-13q8 0 17 2.5t17 5.5l12-63q-11-5-26.5-9T511-12q-43 0-69 24t-26 75h-3q-32-51-71-75t-89-24m17 69q25 0 49.5 12t44 32.5 32 48T411 208l7 91q-10 40-25 65.5T360 404t-37 19.5-35 5.5q-28 0-54-12.5T187.5 380t-33-60.5T142 235q0-85 34-131.5T270 57m76 502-57 10 47 230 85-15z" glyph-name="alphatonos" unicode="ά"/><glyph d="M320-12q-107 0-168 38.5T91 134q0 52 32.5 80t78.5 41v4q-43 16-65 45t-22 63q0 33 15.5 58t43.5 41 66.5 24 84.5 8q54 0 102.5-16t90.5-46l-33-55q-73 52-158 52-61 0-95.5-19T197 357q0-33 33.5-53T338 284q14 0 28.5.5T399 287v-68q-21 2-39.5 2H323q-150 0-150-80 0-41 38.5-64T329 54q45 0 85.5 11.5T499 112l35-55q-27-20-52-33.5T431 2 378-9t-58-3m38 571-57 10 47 230 85-15z" glyph-name="epsilontonos" unicode="έ"/><glyph d="M431-179q1 60 2 122t2 123 1.5 119.5.5 111.5q0 69-21.5 99.5T343 427q-23 0-42.5-4.5t-38-16.5-38.5-32-42-50V0h-82v353q0 29-1 62t-6 71h75l7-95h3q41 56 85.5 81.5T367 498q78 0 112.5-48T514 308v-487zm-83 738-57 10 47 230 85-15z" glyph-name="etatonos" unicode="ή"/><glyph d="M400-12q-81 0-117 44t-36 131v256H81v67h249q-1-41-2-84t-2-85.5-1.5-83-.5-76.5q0-53 23.5-77T418 56q19 0 41 4.5T504 76l21-61Q499 3 469.5-4.5T400-12m-95 571-57 10 47 230 85-15z" glyph-name="iotatonos" unicode="ί"/><glyph d="M294-12q-99 0-155 51.5T83 197q0 39 2 78t2 78q0 29-1.5 62T79 486h80q5-26 6-53.5t1-59.5q0-19-1-42t-2-47-2-47.5-1-44.5q0-37 11-63t29.5-42 43-23.5T295 56q32 0 59 12t47 36.5 31 62.5 11 90q0 51-9 105t-31 117l80 19q20-60 32-119t12-120q0-66-17-116.5t-48-85-74-52T294-12M182 595q-20 0-33 11.5T136 638q0 21 13 33.5t33 12.5 33-12.5 13-33.5q0-20-13-31.5T182 595m73-22 49 226 68-13-75-222zm157 22q-20 0-33 11.5T366 638q0 21 13 33.5t33 12.5 33-12.5 13-33.5q0-20-13-31.5T412 595" glyph-name="upsilondieresistonos" unicode="ΰ"/><glyph d="M253-12q-44 0-80 16t-61.5 47.5-40 77T57 234q0 63 18 112t48 82.5 69.5 51.5 82.5 18q25 0 49.5-6.5t46-21.5 38.5-39.5 28-59.5h3l20 115h82q-10-48-20.5-100.5T502 282t-15-96.5-6-78.5q0-25 14-38t34-13q8 0 17 2.5t17 5.5l12-63q-11-5-26.5-9T511-12q-43 0-69 24t-26 75h-3q-32-51-71-75t-89-24m17 69q25 0 49.5 12t44 32.5 32 48T411 208l7 91q-10 40-25 65.5T360 404t-37 19.5-35 5.5q-28 0-54-12.5T187.5 380t-33-60.5T142 235q0-85 34-131.5T270 57" glyph-name="alpha" unicode="α"/><glyph d="M93-179v674q0 49 12.5 91t37.5 72.5 63 48 89 17.5q37 0 71-10.5t60.5-32 42.5-54 16-76.5q0-54-27-95t-79-71v-4q75-11 120-61t45-127q0-49-16.5-87t-44-64.5-63-40T347-12q-47 0-93 16t-84 58q2-62 3.5-120.5T176-179zM327 57q28 0 52.5 9.5t43 27.5 29 44.5T462 198q0 58-35 97t-106 39q-26 0-50-6l-13 63q40 8 67.5 24t45 37 25.5 45 8 48q0 28-8.5 49T372 629t-34.5 21-41.5 7q-57 0-89.5-44T173 480q-1-88-1.5-173.5T171 133q35-46 76.5-61T327 57" glyph-name="beta" unicode="β"/><glyph d="M255-179q1 16 2 29.5t1.5 27 .5 29V-58q0 58-18 130t-47 145.5T126.5 359 48 477l82 21q26-33 52-78t49.5-97.5 43-110.5T307 97h4q54 95 92.5 191T456 486h82q-12-62-28-117t-40-111-58.5-117T329 5q6-44 8-93t2-91z" glyph-name="gamma" unicode="γ"/><glyph d="M300-12q-45 0-87.5 15T137 46.5 84.5 116 65 209q0 44 15.5 80.5t42 65.5 62 50 76.5 35q-30 19-56.5 38t-46 40-30.5 45-11 52q0 22 10 41.5t30.5 34.5 51.5 24 74 9q53 0 111.5-10T524 680l-20-65q-74 26-127 35.5t-95 9.5q-45 0-64.5-15T198 610t12-37.5 33.5-34.5 51.5-36 67-42q36-23 68-47t55-52.5 36.5-63T535 219q0-52-16-94.5t-46-73-74-47T300-12m2 68q75 0 113.5 44.5T454 218q0 31-10 57t-27.5 47.5-41 40.5-50.5 36q-85-19-132.5-67.5T145 211q0-36 13-64.5T192.5 98t50-31T302 56" glyph-name="delta" unicode="δ"/><glyph d="M320-12q-107 0-168 38.5T91 134q0 52 32.5 80t78.5 41v4q-43 16-65 45t-22 63q0 33 15.5 58t43.5 41 66.5 24 84.5 8q54 0 102.5-16t90.5-46l-33-55q-73 52-158 52-61 0-95.5-19T197 357q0-33 33.5-53T338 284q14 0 28.5.5T399 287v-68q-21 2-39.5 2H323q-150 0-150-80 0-41 38.5-64T329 54q45 0 85.5 11.5T499 112l35-55q-27-20-52-33.5T431 2 378-9t-58-3" glyph-name="epsilon" unicode="ε"/><glyph d="m467-184-66 27q26 32 37.5 50T450-69q0 11-6 19t-21 15-40.5 13T318-8q-40 8-76.5 22.5T177 55t-44.5 66.5T116 222t27 120.5T214.5 459t100 105T427 650h-61.5l-75.5-1-77.5-2-66.5-2v67h377v-67h-5q-59-35-116-84.5T300.5 455t-72-115.5T201 226q0-43 11.5-72t33-48 52-30T367 58q40-8 69.5-16.5t49-20.5 29-29 9.5-42q0-23-13.5-57.5T467-184" glyph-name="zeta" unicode="ζ"/><glyph d="M431-179q1 60 2 122t2 123 1.5 119.5.5 111.5q0 69-21.5 99.5T343 427q-23 0-42.5-4.5t-38-16.5-38.5-32-42-50V0h-82v353q0 29-1 62t-6 71h75l7-95h3q41 56 85.5 81.5T367 498q78 0 112.5-48T514 308v-487z" glyph-name="eta" unicode="η"/><glyph d="M300-12q-53 0-95 22t-71.5 67.5T88 193 72 359q0 180 61 272.5T300 724t167-92.5T528 359q0-96-16-166T466.5 77.5 395 10t-95-22m0 668q-30 0-56-15t-45.5-47-31.5-82.5T153 390h294q-2 71-14 121.5T401.5 594 356 641t-56 15m0-600q30 0 56 14t45.5 46.5 31.5 85T447 331H153q2-77 13.5-129.5t31-85 46-46.5T300 56" glyph-name="theta" unicode="θ"/><glyph d="M400-12q-81 0-117 44t-36 131v256H81v67h249q-1-41-2-84t-2-85.5-1.5-83-.5-76.5q0-53 23.5-77T418 56q19 0 41 4.5T504 76l21-61Q499 3 469.5-4.5T400-12" glyph-name="iota" unicode="ι"/><glyph d="M484-8q-22 25-47.5 56t-51 65-50 70-43.5 72q-35-38-68-83-37-54-37-147V0h-77v353q0 29-1.5 65t-8.5 68h82q5-20 7-50.5t2-62.5V221h4q30 52 69 97.5t83.5 81.5 91.5 61 94 37l9-78q-48-14-97-41.5T347 309q20-38 47.5-79t58-81T515 71t62-71z" glyph-name="kappa" unicode="κ"/><glyph d="M145-8 56 0l224 497-8 23q-24 71-52.5 102.5T146 654q-20 0-34.5-5T84 638l-21 68q17 8 38.5 13t53.5 5q38 0 67-12t52.5-37.5 42.5-64 38-91.5L553 0h-89L319 403h-4z" glyph-name="lambda" unicode="λ"/><glyph d="M84-187v673h82V195q0-67 24.5-101.5T269 59q19 0 37 4t36.5 15 37 32 37.5 54v322h83q-2-99-4-202.5T494 92q0-20 8-28t20-8h7.5l10.5 2 11-62q-18-8-47-8-38 0-57.5 22.5T424 92h-2q-30-52-69.5-77T268-10Q235-10 207.5.5T160 43q0-38 .5-67.5t1-55.5 2-51.5T167-187z" glyph-name="uni03BC" unicode="μ"/><glyph d="M257 0q-14 72-35.5 138T172 264t-60 113-65 100l82 21q28-39 56-88.5T237 306t43-110.5T309 85h4q25 47 49 97t44 101 33.5 102.5T457 486h83q-10-63-28-122.5t-43.5-119-58-119.5T338 0z" glyph-name="nu" unicode="ν"/><glyph d="m470-184-66 27q26 32 37 50t11 38q0 11-5.5 19T426-35t-40.5 13T321-8q-42 9-80 22t-66.5 35-45.5 55-17 81q0 36 13 67.5t34.5 56.5 50.5 43 61 27v4q-48 20-79.5 55.5T160 527q0 42 20.5 73t57.5 50h-37.5l-33-1-34.5-2-41-2v67h431v-67H379q-27 0-52-8t-43.5-23-29.5-37.5-11-51.5q0-26 12-48t31.5-38 44.5-25 50-9q23 0 39 .5t39 4.5v-72q-23 4-41.5 4.5t-41.5.5q-34 0-66.5-10T252 304.5t-40-46-15-62.5q0-36 13.5-59.5t37-38.5T303 74t70-16q41-8 70.5-16.5t48-20.5 27-29 8.5-42q0-23-13-57.5T470-184" glyph-name="xi" unicode="ξ"/><glyph d="M300-12q-48 0-91 17t-75 49.5-51 80T64 242q0 61 19 108.5t51 80.5 75 50 91 17 91-17 75-50 51-80.5T536 242q0-60-19-107.5t-51-80T391 5t-91-17m0 68q35 0 63 13.5t47.5 38 30 58.5 10.5 76-10.5 76.5-30 59.5-47.5 38.5-63 13.5-63-13.5-47.5-38.5-30-59.5T149 242t10.5-76 30-58.5 47.5-38T300 56" glyph-name="omicron" unicode="ο"/><glyph d="M503-12q-58 0-82 31t-24 91q0 19 .5 54.5T399 243t2 89 1 86H205q0-103-3.5-209.5T190-5l-82 5q12 108 16 213.5t4 204.5H27v63l69 5h477v-68h-92q-2-41-3.5-88.5t-2.5-92-1-80V104q0-26 11-37t34-11q5 0 11 1.5t16 4.5l12-63q-11-5-24-8t-31-3" glyph-name="pi" unicode="π"/><glyph d="M93-179v427q0 63 18 110t48.5 78 71.5 46.5 88 15.5q108 0 164.5-66T540 250q0-62-18-110.5T474.5 57t-68-51.5T328-12q-42 0-82.5 14T170 57q1-33 2-61.5t1.5-56.5 1.5-57 1-61zM314 57q29 0 55 13.5t45 38 30 60.5 11 81q0 40-8 73t-25 56.5-43 36.5-63 13q-29 0-55-11.5t-46-34-31.5-56.5-11.5-80V123q18-21 35.5-34T243 69t36-9.5 35-2.5" glyph-name="rho" unicode="ρ"/><glyph d="m438-180-66 26q26 33 39.5 55T425-55q0 12-4 21.5t-15.5 18-33 15.5T316 14q-43 9-84 25.5t-72.5 44-50.5 69T90 254q0 58 21 103.5t56.5 77 82 47.5 97.5 16q61 0 103-19.5t74-48.5l-42-53q-30 27-60 40t-71 13q-38 0-70-12.5T225.5 382t-37-55.5T175 254q0-43 13.5-72.5t37.5-49 56.5-31.5T353 81q43-9 71.5-19t45-23.5 23-32T499-37q0-26-15-63.5T438-180" glyph-name="uni03C2" unicode="ς"/><glyph d="M290-12q-47 0-88.5 16.5t-73 48-50 78.5T60 238q0 64 19.5 110.5t52 77T206 471t88 15h278v-70q-43 3-79.5 5t-78.5 3v-4q48-26 74-75t26-118q0-57-17.5-101T449 51 378 4t-88-16m0 68q31 0 57.5 12.5T393 104t29.5 56 10.5 74q0 36-9 69.5t-27 59-44.5 40.5-60.5 15q-63 0-105-44.5T145 238q0-42 11-75.5t30.5-57.5 46-36.5T290 56" glyph-name="sigma" unicode="σ"/><glyph d="M376-12q-65 0-91 35.5T259 127v292H66v62l70 5h398v-67H340q-2-78-3-153.5T336 121q0-35 14.5-50T394 56q15 0 29.5 3t31.5 8l11-64q-17-6-40.5-10.5T376-12" glyph-name="tau" unicode="τ"/><glyph d="M294-12q-99 0-155 51.5T83 197q0 39 2 78t2 78q0 29-1.5 62T79 486h80q5-26 6-53.5t1-59.5q0-19-1-42t-2-47-2-47.5-1-44.5q0-37 11-63t29.5-42 43-23.5T295 56q32 0 59 12t47 36.5 31 62.5 11 90q0 51-9 105t-31 117l80 19q20-60 32-119t12-120q0-66-17-116.5t-48-85-74-52T294-12" glyph-name="upsilon" unicode="υ"/><glyph d="M128 244q0-85 37.5-133.5T260 57v372q-57-5-94.5-52.5T128 244m344 0q0 85-37.5 132.5T340 429V57q57 5 94.5 53.5T472 244M260-179V-9q-44 3-83 20.5T108.5 61t-47 78T44 244q0 58 17.5 104t47 77.5 68.5 49 83 20.5v127h80V495q43-3 82.5-20.5t69-49 47-77.5T556 244q0-59-17.5-105t-47-78-69-49.5T340-9v-170z" glyph-name="phi" unicode="φ"/><glyph d="m139-191-83 12 206 342L59 477l82 21 160-262h4l137 250h87L344 164l216-334-80-21L305 96h-4z" glyph-name="chi" unicode="χ"/><glyph d="M262-179v167q-52 1-90 18t-63 47-37 71-12 91v138q0 29-1 62t-6 71h80q4-26 5-53.5t1-59.5q0-21-.5-44.5T138 283t-.5-41-.5-31q0-72 30-114t95-42v567h80V56q63 5 97.5 54T474 256q0 28-2 54t-6.5 52.5-12 55T434 479l76 19q23-63 33-118.5T553 258q0-125-55.5-194.5T342-11v-168z" glyph-name="psi" unicode="ψ"/><glyph d="M190-12q-33 0-61.5 15T79 48t-33 75.5T34 229q0 78 26.5 145T125 498l72-33q-21-30-36.5-59t-26-59-15.5-62.5-5-70.5q0-76 23-117t58-41q28 0 48.5 27t20.5 95q0 30-2 60.5t-6 69.5h85q-4-39-5.5-69.5T334 178q0-35 5.5-58.5T354 82t21.5-20 26.5-6q36 0 58 41.5T482 227q0 37-4.5 67.5T464 353t-23.5 55.5T406 467l73 31q19-29 35-58t27.5-61.5 18-68.5 6.5-78q0-123-42.5-183.5T412-12q-35 0-64.5 19.5T301 69h-4q-17-42-44.5-61.5T190-12" glyph-name="omega" unicode="ω"/><glyph d="M400-12q-81 0-117 44t-36 131v256H81v67h249q-1-41-2-84t-2-85.5-1.5-83-.5-76.5q0-53 23.5-77T418 56q19 0 41 4.5T504 76l21-61Q499 3 469.5-4.5T400-12M186 588q-24 0-39.5 16T131 644q0 23 15.5 39.5T186 700t39.5-16.5T241 644q0-24-15.5-40T186 588m194 0q-24 0-39.5 16T325 644q0 23 15.5 39.5T380 700t39.5-16.5T435 644q0-24-15.5-40T380 588" glyph-name="iotadieresis" unicode="ϊ"/><glyph d="M294-12q-99 0-155 51.5T83 197q0 39 2 78t2 78q0 29-1.5 62T79 486h80q5-26 6-53.5t1-59.5q0-19-1-42t-2-47-2-47.5-1-44.5q0-37 11-63t29.5-42 43-23.5T295 56q32 0 59 12t47 36.5 31 62.5 11 90q0 51-9 105t-31 117l80 19q20-60 32-119t12-120q0-66-17-116.5t-48-85-74-52T294-12m-94 600q-24 0-39.5 16T145 644q0 23 15.5 39.5T200 700t39.5-16.5T255 644q0-24-15.5-40T200 588m194 0q-24 0-39.5 16T339 644q0 23 15.5 39.5T394 700t39.5-16.5T449 644q0-24-15.5-40T394 588" glyph-name="upsilondieresis" unicode="ϋ"/><glyph d="M300-12q-48 0-91 17t-75 49.5-51 80T64 242q0 61 19 108.5t51 80.5 75 50 91 17 91-17 75-50 51-80.5T536 242q0-60-19-107.5t-51-80T391 5t-91-17m0 68q35 0 63 13.5t47.5 38 30 58.5 10.5 76-10.5 76.5-30 59.5-47.5 38.5-63 13.5-63-13.5-47.5-38.5-30-59.5T149 242t10.5-76 30-58.5 47.5-38T300 56m22 503-57 10 47 230 85-15z" glyph-name="omicrontonos" unicode="ό"/><glyph d="M294-12q-99 0-155 51.5T83 197q0 39 2 78t2 78q0 29-1.5 62T79 486h80q5-26 6-53.5t1-59.5q0-19-1-42t-2-47-2-47.5-1-44.5q0-37 11-63t29.5-42 43-23.5T295 56q32 0 59 12t47 36.5 31 62.5 11 90q0 51-9 105t-31 117l80 19q20-60 32-119t12-120q0-66-17-116.5t-48-85-74-52T294-12m25 571-57 10 47 230 85-15z" glyph-name="upsilontonos" unicode="ύ"/><glyph d="M190-12q-33 0-61.5 15T79 48t-33 75.5T34 229q0 78 26.5 145T125 498l72-33q-21-30-36.5-59t-26-59-15.5-62.5-5-70.5q0-76 23-117t58-41q28 0 48.5 27t20.5 95q0 30-2 60.5t-6 69.5h85q-4-39-5.5-69.5T334 178q0-35 5.5-58.5T354 82t21.5-20 26.5-6q36 0 58 41.5T482 227q0 37-4.5 67.5T464 353t-23.5 55.5T406 467l73 31q19-29 35-58t27.5-61.5 18-68.5 6.5-78q0-123-42.5-183.5T412-12q-35 0-64.5 19.5T301 69h-4q-17-42-44.5-61.5T190-12m132 571-57 10 47 230 85-15z" glyph-name="omegatonos" unicode="ώ"/><glyph d="M329-12Q288-12 246.5.5t-76 40-56 72.5T93 224v271q0 49 12.5 91t38 73 64 48 90.5 17q35 0 68.5-10.5t60-32 42.5-54 16-76.5q0-54-29.5-96T372 385v-4q40-4 71.5-20t54-41 34.5-58.5 12-72.5q0-47-16.5-84t-46-63T413 2t-84-14M173 480q0-33-.5-60t-.5-51q64 12 108.5 29t72 39 39.5 49 12 59q0 56-32 84t-74 28q-60 0-91.5-44.5T173 480M326 60q30 0 55 10t43 28 28 42.5 10 53.5q0 30-8.5 55.5t-26 44-44 29.5-62.5 11q-15 0-51-5.5T171 306v-69q0-54 16-88t40-54 51-27.5 48-7.5" glyph-name="uni03D0" unicode="ϐ"/><glyph d="M158 541q0-32 12.5-63t45-53.5T304 393t142 3q-2 70-15 120t-34.5 81-51 45-65.5 14q-54 0-88-31t-34-84M297-12q-93 0-144.5 49T101 182q0 39-1.5 62.5T93 291h77q6-14 7-39.5t1-59.5q0-37 9.5-63T214 87t39-23.5 48-7.5q30 0 56 12.5t45.5 45 31 87.5T447 341q-107-15-178 .5t-113 47T96.5 462 79 542q0 41 15.5 74.5T137 674t63 37 77 13q125 0 188-92.5T528 362q0-103-16.5-174.5T464.5 72t-73-64T297-12" glyph-name="uni03D1" unicode="ϑ"/><glyph d="M128 244q0-85 37.5-133.5T260 57v372q-57-5-94.5-52.5T128 244m344 0q0 85-37.5 132.5T340 429V57q57 5 94.5 53.5T472 244M260-179V-9q-44 3-83 20.5T108.5 61t-47 78T44 244q0 58 17.5 104t47 77.5 68.5 49 83 20.5v127h80V495q43-3 82.5-20.5t69-49 47-77.5T556 244q0-59-17.5-105t-47-78-69-49.5T340-9v-170z" glyph-name="uni03D5" unicode="ϕ"/><glyph d="m441-187-95 8q39 41 74 85t63 87q-22 25-47.5 56t-51 64.5T335 183t-43 72q-35-38-68-83-37-54-37-147V0h-77v353q0 29-1.5 65t-8.5 68h82q5-20 7-50.5t2-62.5V221h4q30 52 69 97.5t83.5 81.5 91.5 61 94 37l9-78q-48-14-97-41.5T347 309q20-38 47.5-79t58-81T515 71t62-71q-33-53-69.5-102.5T441-187" glyph-name="uni03D7" unicode="ϗ"/><glyph d="M300 54q72 0 112.5 51T453 242q0 85-40.5 136.5T300 430t-112.5-51.5T147 242q0-86 40.5-137T300 54m-37-233V-9q-42 6-79 25t-64 51-42.5 76T62 242q0 61 19 109t51.5 80.5T208 481t92 17 92-17 75.5-49.5T519 351t19-109q0-54-15-97.5T481.5 69 419 17.5 341-9q1-23 1.5-42.5l1-39 1-41L346-179z" glyph-name="uni03D9" unicode="ϙ"/><glyph d="m438-180-65 26q26 33 39 55t13 42q0 12-3.5 21.5t-14.5 18-32.5 16T316 14q-44 10-84.5 26.5t-72 43.5-50 66T91 245q0 62 20.5 107.5t56.5 75 84.5 44T357 486h156v-70q-31 2-70 2h-81q-85 0-135.5-42.5T176 245q0-39 13-66t36-46 56-31.5T353 81q43-9 71.5-19.5t45-24 23-31.5 6.5-43q0-26-15-63.5T438-180" glyph-name="uni03DB" unicode="ϛ"/><glyph d="M146-179v665h377v-67H222l2-217h266v-59H225q0-81 1-157.5t3-164.5z" glyph-name="uni03DD" unicode="ϝ"/><glyph d="m507-179-80 10q10 48 14 94t4 92q0 67-10 126-63-29-123.5-57.5T182 22l-34 69 272 122q-15 63-42 119-69-31-135-62t-141-69l-34 69 278 125q-42 72-100 131T113 629l51 61q87-53 154.5-126t113-160T501 218.5 525 16q0-51-4-98.5T507-179" glyph-name="uni03E1" unicode="ϡ"/><glyph d="M114 0v656h406v-70H198V380h272v-71H198V71h332V0zm246 697L208 812l47 55 141-128z" glyph-name="uni0400" unicode="Ѐ"/><glyph d="M114 0v656h406v-70H198V380h272v-71H198V71h332V0zm126 715q-22 0-36.5 14T189 766t14.5 36.5T240 816t36-13.5 14-36.5-14-37-36-14m182 0q-22 0-36 14t-14 37 14 36.5 36 13.5 36.5-13.5T473 766t-14.5-37-36.5-14" glyph-name="uni0401" unicode="Ё"/><glyph d="M411-12q-17 0-35 3t-29 7l15 67q7-3 17.5-5.5T400 57q16 0 32.5 6T463 84.5t23 41.5 9 65q0 74-38.5 107.5T349 332q-24 0-48.5-2.5T257 322V0h-84v586H5v70h462v-70H257V391q22 4 49.5 7t54.5 3q46 0 85.5-12t68.5-37 45-65 16-95q0-59-14-98t-37.5-62.5-53-33.5T411-12" glyph-name="uni0402" unicode="Ђ"/><glyph d="M135 0v656h400v-70H218V0zm136 697-36 42 141 128 47-55z" glyph-name="uni0403" unicode="Ѓ"/><glyph d="M352-12q-63 0-115.5 22T146 74.5t-59 106T66 328q0 83 21.5 146.5t60 106.5 92 65T356 668q60 0 106.5-24.5T538 587l-46-54q-26 28-59 45t-75 17q-88 0-142-55t-65-160h274v-71H150q5-125 58.5-186.5T356 61q47 0 83.5 19.5T508 135l46-52q-39-45-88.5-70T352-12" glyph-name="uni0404" unicode="Є"/><glyph d="M305-12q-72 0-132.5 26T67 85l50 58q37-37 86-59.5T309 61q68 0 105.5 29t37.5 75q0 26-9 44t-25 31-37.5 23-46.5 21l-94 41q-25 10-50 24t-45.5 34-33.5 47.5T98 494q0 37 16 69t44.5 55.5 68 36.5 86.5 13q62 0 114-22.5t88-58.5l-44-54q-32 29-71 45.5T310 595q-57 0-92-25.5T183 499q0-24 10.5-40.5t27-29T258 408l42-18 92-40q30-12 56.5-27.5t46-36 31-48T537 175q0-39-16-73t-46-59.5-73-40T305-12" glyph-name="uni0405" unicode="Ѕ"/><glyph d="M95 0v71h163v515H95v70h410v-70H342V71h163V0z" glyph-name="uni0406" unicode="І"/><glyph d="M95 0v71h163v515H95v70h410v-70H342V71h163V0zm114 715q-22 0-36.5 14T158 766t14.5 36.5T209 816t36-13.5 14-36.5-14-37-36-14m182 0q-22 0-36 14t-14 37 14 36.5 36 13.5 36.5-13.5T442 766t-14.5-37-36.5-14" glyph-name="uni0407" unicode="Ї"/><glyph d="M276-12q-55 0-108 26T81 97l52 51q28-45 65.5-66T274 61q71 0 103.5 37.5T410 217v370H135v70h358V210q0-46-11-86.5T445.5 53t-67-47.5T276-12" glyph-name="uni0408" unicode="Ј"/><glyph d="M35-12q-11 0-21 1T-8-5L9 72q5-2 9-3t9-1q9 0 17 5t15.5 22T74 144.5 88 232q14 109 21 213.5T119 656h237V387h22q43 0 79.5-10.5t62-33 40-57.5 14.5-84q0-105-54-153.5T375 0h-95v586h-92q-3-90-10-178t-18-193q-8-69-19-113t-26-69.5-35-35T35-12m321 80h16q65 0 96.5 31T500 200q0 63-32 91.5T369 320h-13z" glyph-name="uni0409" unicode="Љ"/><glyph d="M39 0v656h76V381h152v275h76V387h35q43 0 79-10.5t62-33 40-57.5 14-84q0-53-13.5-91t-39-62.5T459 12 379 0H267v309H115V0zm304 68h29q63 0 95 30t32 102q0 64-32 92t-98 28h-26z" glyph-name="uni040A" unicode="Њ"/><glyph d="M173 0v586H5v70h461v-70H256V391q23 4 50.5 7t53.5 3q97 0 152-45t55-147V0h-82v209q0 67-34 95t-103 28q-23 0-48-2.5t-44-7.5V0z" glyph-name="uni040B" unicode="Ћ"/><glyph d="M102 0v656h83V380h107l88 166q19 37 36.5 61t34.5 37.5 35.5 18.5 41.5 5q9 0 18.5-1.5T564 662l-15-78q-6 2-12 3t-11 1q-11 0-20.5-3t-19-11.5-21-25T440 505l-81-153L580 0h-92L292 309H185V0zm186 697-36 42 141 128 47-55z" glyph-name="uni040C" unicode="Ќ"/><glyph d="M78 0v656h80V316q0-52-4.5-105.5T147 108h2l63 136 218 412h92V0h-80v343q0 51 4.5 102.5T453 548h-2l-63-136L170 0zm255 697L181 812l47 55 141-128z" glyph-name="uni040D" unicode="Ѝ"/><glyph d="M178-12q-22 0-36.5 2.5T113-2l18 75q8-3 17.5-5t24.5-2q32 0 51 12.5t33 40.5l14 35L47 656h89l122-292 50-129h4l47 129 112 292h85L341 119q-25-61-62.5-96T178-12m126 717q-42 0-70 10.5T188.5 744t-26 41-9.5 48l72 4q1-35 19-60.5t60-25.5q21 0 35.5 7t24 18.5 14 27T383 837l72-4q-2-25-10-48t-25.5-41-45.5-28.5-70-10.5" glyph-name="uni040E" unicode="Ў"/><glyph d="M75 0v656h84V71h282v585h84V0H343l-8-188h-69V0z" glyph-name="uni040F" unicode="Џ"/><glyph d="m232 367-31-100h196l-31 100q-17 55-33.5 109.5T301 588h-4q-16-57-32-111.5T232 367M32 0l221 656h94L568 0h-88l-62 200H180L117 0z" glyph-name="uni0410" unicode="А"/><glyph d="M99 0v656h405v-70H182V380h126q52 0 96-10t75.5-31.5 49.5-56 18-83.5q0-103-63.5-151T312 0zm83 70h116q85 0 126 28t41 96q0 63-42 89.5T296 310H182z" glyph-name="uni0411" unicode="Б"/><glyph d="M99 0v656h186q50 0 91.5-9t71-28 46-49.5T510 496q0-49-28-88.5T395 353v-4q72-11 112-50t40-107q0-48-18-84t-50.5-60-78-36T300 0zm83 380h89q84 0 120.5 27t36.5 82q0 54-38.5 75.5T275 586h-93zm0-310h106q85 0 131 29.5t46 96.5q0 61-45 87.5T288 310H182z" glyph-name="uni0412" unicode="В"/><glyph d="M135 0v656h400v-70H218V0z" glyph-name="uni0413" unicode="Г"/><glyph d="M31-188 22 21v50h30q9 4 19 16.5T91.5 127t21.5 71 22 109q9 49 16 90t13.5 81 13 82.5T192 656h313V71h73V21l-9-209h-73V0H104v-188zm179 481q-14-85-31-138t-37-84h280v515H257q-7-42-12.5-77.5t-10.5-69-11-69-13-77.5" glyph-name="uni0414" unicode="Д"/><glyph d="M114 0v656h406v-70H198V380h272v-71H198V71h332V0z" glyph-name="uni0415" unicode="Е"/><glyph d="m2 0 139 351-43 158q-8 26-16 41.5T66.5 574 51 584.5 35 587q-5 0-10.5-1T14 583L1 663q7 2 19 3.5t21 1.5q19 0 36-4.5t32-17 28.5-36T162 548l47-168h53v276h76V380h53l47 168q11 39 23.5 62.5t27 36 31 17T555 668q9 0 23-1.5t21-3.5l-13-80q-5 2-10.5 3t-10.5 1q-8 0-16-2.5T533.5 574 518 550.5 502 509l-43-158L598 0h-90L398 309h-60V0h-76v309h-60L92 0z" glyph-name="uni0416" unicode="Ж"/><glyph d="M301-12q-72 0-130 23T62 85l47 57q44-44 88.5-62.5T300 61q33 0 61.5 8.5t50 25 34 40.5 12.5 55q0 63-47 93t-133 30h-74v64h54q88 0 127 28.5t39 84.5q0 52-37 78.5T293 595q-47 0-86.5-17T136 532l-45 56q36 35 89.5 57.5T295 668q47 0 86-11.5t66.5-33 43-53T506 500q0-52-25-91.5T408 352v-4q57-11 94.5-52.5T540 186q0-47-18.5-84t-51-62.5-76-38.5T301-12" glyph-name="uni0417" unicode="З"/><glyph d="M78 0v656h80V316q0-52-4.5-105.5T147 108h2l63 136 218 412h92V0h-80v343q0 51 4.5 102.5T453 548h-2l-63-136L170 0z" glyph-name="uni0418" unicode="И"/><glyph d="M78 0v656h80V316q0-52-4.5-105.5T147 108h2l63 136 218 412h92V0h-80v343q0 51 4.5 102.5T453 548h-2l-63-136L170 0zm226 705q-42 0-70 10.5T188.5 744t-26 41-9.5 48l72 4q1-35 19-60.5t60-25.5q21 0 35.5 7t24 18.5 14 27T383 837l72-4q-2-25-10-48t-25.5-41-45.5-28.5-70-10.5" glyph-name="uni0419" unicode="Й"/><glyph d="M102 0v656h83V380h107l88 166q19 37 36.5 61t34.5 37.5 35.5 18.5 41.5 5q9 0 18.5-1.5T564 662l-15-78q-6 2-12 3t-11 1q-11 0-20.5-3t-19-11.5-21-25T440 505l-81-153L580 0h-92L292 309H185V0z" glyph-name="uni041A" unicode="К"/><glyph d="M58-12q-16 0-29 2T2-3l17 77q15-6 28-6 12 0 23 5.5t21 24 20 53 22 93.5q10 53 19.5 103T171 447.5t17.5 102T207 656h314V0h-84v586H272q-16-91-29.5-175.5T212 235q-15-75-30-123t-33-75.5-40.5-38T58-12" glyph-name="uni041B" unicode="Л"/><glyph d="M72 0v656h102l92-280 32-106h4l31 106 93 280h102V0h-80v328q0 24 1.5 55.5t4 63.5 4.5 62 4 51h-3l-37-128-94-258h-60l-92 258-38 128h-2q2-21 4.5-51t4.5-62 3.5-63.5T150 328V0z" glyph-name="uni041C" unicode="М"/><glyph d="M79 0v656h84V381h274v275h84V0h-84v309H163V0z" glyph-name="uni041D" unicode="Н"/><glyph d="M300-12q-56 0-102 23.5T118.5 79t-52 107.5T48 331q0 79 18.5 142t52 106 79.5 66 102 23q55 0 101.5-23t80-66 52-106T552 331q0-81-18.5-144.5T481.5 79t-80-67.5T300-12m0 73q37 0 68 18.5t52.5 53.5 33.5 85 12 113q0 62-12 111t-33.5 83-52.5 52-68 18q-38 0-68.5-18t-52-52-33.5-83-12-111q0-63 12-113t33.5-85 52-53.5T300 61" glyph-name="uni041E" unicode="О"/><glyph d="M79 0v656h442V0h-84v586H163V0z" glyph-name="uni041F" unicode="П"/><glyph d="M102 0v656h198q54 0 99-10t77-32.5 49.5-59.5 17.5-91q0-52-17.5-90t-50-63-77-37.5T300 260H185V0zm83 328h105q87 0 128 32.5T459 463q0 71-42 98.5T290 589H185z" glyph-name="uni0420" unicode="Р"/><glyph d="M351-12q-61 0-113 23t-90.5 66.5-60.5 107T65 328q0 79 22 142t61 107 93 67.5T359 668q59 0 104.5-24t74.5-56l-47-53q-26 27-58 43.5T359 595q-47 0-85.5-18.5t-65.5-53-42-83.5-15-110q0-62 15-111.5t42-84.5 65.5-54T359 61q45 0 80.5 19t67.5 54l47-51q-39-45-88-70T351-12" glyph-name="uni0421" unicode="С"/><glyph d="M258 0v586H42v70h516v-70H342V0z" glyph-name="uni0422" unicode="Т"/><glyph d="M178-12q-22 0-36.5 2.5T113-2l18 75q8-3 17.5-5t24.5-2q32 0 51 12.5t33 40.5l14 35L47 656h89l122-292 50-129h4l47 129 112 292h85L341 119q-25-61-62.5-96T178-12" glyph-name="uni0423" unicode="У"/><glyph d="M106 332q0-82 38.5-130T262 147v364q-79-6-117.5-52T106 332m388 0q0 81-38.5 127T338 511V147q79 7 117.5 55T494 332M262-12v95q-113 8-174.5 71.5T26 332q0 112 61.5 173.5T262 575v93h76v-93q113-8 174.5-69.5T574 332q0-114-61.5-177.5T338 83v-95z" glyph-name="uni0424" unicode="Ф"/><glyph d="m54 0 196 339L67 656h92l92-168q13-23 25-44.5t28-50.5h4q14 29 24.5 50.5T355 488l90 168h88L350 335 546 0h-92l-99 177q-14 24-27.5 49.5T297 282h-4q-14-30-27-55.5T240 177L142 0z" glyph-name="uni0425" unicode="Х"/><glyph d="M79 0v656h83V71h273v585h83V71h71V21l-9-209h-68V0z" glyph-name="uni0426" unicode="Ц"/><glyph d="M432 0v294q-25-5-55-7.5t-70-2.5q-56 0-101 11t-76.5 36.5-48 67T65 500v156h82V500q0-83 43.5-115T314 353q39 0 68 2.5t50 7.5v293h84V0z" glyph-name="uni0427" unicode="Ч"/><glyph d="M40 0v656h76V71h146v585h76V71h146v585h76V0z" glyph-name="uni0428" unicode="Ш"/><glyph d="M38 0v656h74V71h134v585h74V71h134v585h74V71h64V21l-9-209h-66V0z" glyph-name="uni0429" unicode="Щ"/><glyph d="M201 0v586H19v70h266V387h55q50 0 93-11t74-33.5 48.5-57.5 17.5-83q0-53-16-91t-45.5-62.5-71-36.5T347 0zm84 68h51q78 0 117.5 31T493 200q0 60-41.5 90T329 320h-44z" glyph-name="uni042A" unicode="Ъ"/><glyph d="M55 0v656h76V387h36q49 0 89.5-10.5t69-33T370 286t16-84q0-105-59-153.5T168 0zm76 68h30q75 0 113.5 31T313 200q0 63-38.5 91.5T159 320h-28zM469 0v656h76V0z" glyph-name="uni042B" unicode="Ы"/><glyph d="M98 0v656h84V387h121q54 0 98.5-10.5t76.5-33 49.5-57.5 17.5-84q0-53-17-91t-48.5-62.5-76-36.5T304 0zm84 68h111q84 0 127 31t43 101q0 63-43 91.5T291 320H182z" glyph-name="uni042C" unicode="Ь"/><glyph d="M258-12q-67 0-118.5 25T46 83l46 52q34-35 73.5-54.5T256 61q86 0 137.5 61.5T450 309H175v71h274q-9 105-59 160t-136 55q-43 0-80.5-16.5T108 533l-46 54q31 32 82.5 56.5T258 668t113-22 87-65 56-106.5T534 328q0-84-20.5-147.5T456 74.5 368.5 10 258-12" glyph-name="uni042D" unicode="Э"/><glyph d="M380-12q-80 0-127 78.5T202 309h-74V0H44v656h84V381h75q7 149 53.5 218T380 668q84 0 134-81t50-255q0-176-50-260T380-12m0 73q24 0 42 15t30.5 47.5 19 84T478 332q0 72-6.5 122t-19 81.5T422 581t-42 14q-23 0-41-14t-30.5-45.5T289 454t-7-122q0-73 7-124.5t19.5-84T339 76t41-15" glyph-name="uni042E" unicode="Ю"/><glyph d="M417 0v277H296L126 0H30l184 286q-66 16-107.5 61.5T65 472q0 51 17 86t47.5 57 73 31.5T295 656h206V0zM307 345h110v244H307q-77 0-117.5-26T149 472q0-64 40.5-95.5T307 345" glyph-name="uni042F" unicode="Я"/><glyph d="M246-12q-34 0-64 9.5t-52.5 27-35.5 43T81 126q0 41 19.5 71.5t62 52.5T272 286t161 22q-1 25-8 47t-22 38.5-39.5 26.5-59.5 10q-48 0-92-18.5T134 372l-32 56q18 12 42.5 24.5t52 22.5 58.5 16.5 63 6.5q100 0 148.5-54.5T515 298V0h-67l-7 66h-3q-41-32-90.5-55T246-12m22 66q42 0 82.5 18.5T433 126v128q-78-6-130.5-17t-84-26.5-44.5-35-13-43.5q0-21 9-35.5t23.5-24 34-14T268 54" glyph-name="uni0430" unicode="а"/><glyph d="M311-12q-56 0-100 21t-74 61-46 97-16 128q0 121 22 195.5t62.5 118 98 63.5T386 703q22 3 37 5.5t27 5.5 21.5 6.5T493 730l17-75q-20-13-47-19.5T403 624q-59-9-102.5-19.5t-73-34.5-46-67T159 387q33 40 77.5 60.5T329 468q45 0 82-15.5t63.5-45T516 336t15-95q0-58-16.5-105t-46-80-70-50.5T311-12m-1 68q65 0 100.5 51T446 241q0 75-35.5 119.5T309 405q-38 0-77.5-18.5T155 317v-38q0-50 9.5-91.5t29-70.5T242 72t68-16" glyph-name="uni0431" unicode="б"/><glyph d="M104 0v486h225q42 0 77-7t59.5-21.5 38.5-38 14-56.5q0-41-23-66.5T433 259v-3q21-5 40.5-14t34-23.5 23-34T539 139q0-36-15-62t-42-43.5T418 8t-81-8zm81 284h130q66 0 94.5 18.5T438 355t-27.5 49.5T321 420H185zm0-218h143q66 0 97.5 18.5T457 144q0 76-134 76H185z" glyph-name="uni0432" unicode="в"/><glyph d="M146 0v486h377v-67H228V0z" glyph-name="uni0433" unicode="г"/><glyph d="M206 255q-8-72-21.5-117T153 67h251v352H225zM51-172 42 15v52h24q10 6 19.5 16.5T103 116t16 59 15 96l26 215h326V67h71V15l-9-187h-71V0H121v-172z" glyph-name="uni0434" unicode="д"/><glyph d="M330-12q-55 0-102.5 17t-83 50-56 80.5T68 244q0 59 20.5 106t55 80 79 50.5T316 498q52 0 93.5-16.5t70-46.5 43.5-72 15-93q0-14-1-27t-3-23H151q8-83 60.5-124.5T340 54q44 0 79.5 12.5T488 100l30-54q-36-24-82.5-41T330-12m-12 445q-30 0-57.5-10T211 394.5 174 348t-21-64h310q-5 75-43.5 112T318 433" glyph-name="uni0435" unicode="е"/><glyph d="m6 0 132 262-34 93q-15 40-31 51.5T41 418h-8.5l-8.5-2-12 77q5 3 13 4t17 1q39 0 68.5-21t52.5-81l42-112h55v202h80V284h55l42 112q23 60 52.5 81t68.5 21q18 0 30-5l-12-77q-5 2-8.5 2H559q-17 0-32.5-11.5T496 355l-34-93L594 0h-86L403 220h-63V0h-80v220h-63L92 0z" glyph-name="uni0436" unicode="ж"/><glyph d="M280-12q-60 0-113 15.5T62 61l36 54q42-35 86-48t89-13q76 0 117 22.5t41 64.5-38.5 60.5T281 220h-84v64h72q70 0 104.5 19.5T408 359q0 74-134 74-53 0-90.5-13.5T108 378l-34 55q42 31 91.5 48T279 498q46 0 84.5-8t66.5-24 43.5-41 15.5-58q0-36-21.5-63.5T402 259v-4q50-13 80.5-40.5T513 134q0-35-17-62t-47.5-46T375-2.5 280-12" glyph-name="uni0437" unicode="з"/><glyph d="M100 0v486h80V284q0-39-3-85.5t-5-93.5h4q14 23 32 52t32 52l184 277h76V0h-80v202q0 39 3 85.5t5 94.5h-4q-14-23-32-52.5T360 278L176 0z" glyph-name="uni0438" unicode="и"/><glyph d="M100 0v486h80V284q0-39-3-85.5t-5-93.5h4q14 23 32 52t32 52l184 277h76V0h-80v202q0 39 3 85.5t5 94.5h-4q-14-23-32-52.5T360 278L176 0zm211 572q-42 0-71 12.5t-48 33-28 47.5-10 56l68 4q1-21 5.5-40.5t15-33.5 27-22.5T311 620t41.5 8.5 27 22.5 15 33.5T400 725l68-4q-2-29-10.5-56T430 617.5t-48-33-71-12.5" glyph-name="uni0439" unicode="й"/><glyph d="M110 0v486h82V286h128l59 108q16 31 31 51t30 32 31.5 16.5T508 498t32-6l-14-77q-5 2-9.5 2.5t-10.5.5q-9 0-17-2.5t-16-10-17-20-20-33.5l-53-97L560 0h-91L320 219H192V0z" glyph-name="uni043A" unicode="к"/><glyph d="M74-12q-14 0-24 2T29-4l16 76q5-2 10-3t12-1q26 0 42 24.5t23 78.5q10 79 19 157.5T169 486h327V0h-83v419H234q-8-67-16-134.5T202 150Q181-12 74-12" glyph-name="uni043B" unicode="л"/><glyph d="M64 0v486h100l92-228q11-30 22-59t21-59h4q11 30 22 59t21 59l90 228h100V0h-78v218q0 16 1 37.5t2.5 44l3 45L468 386h-4q-11-29-22-59t-22-57L332 46h-62l-92 224q-11 27-21 57t-21 59h-4q1-19 3-41.5t3.5-45 2.5-44 1-37.5V0z" glyph-name="uni043C" unicode="м"/><glyph d="M93 0v486h82V289h250v197h82V0h-82v216H175V0z" glyph-name="uni043D" unicode="н"/><glyph d="M300-12q-48 0-91.5 17T132 54.5t-52.5 80T60 242q0 61 19.5 108.5T132 431t76.5 50 91.5 17 91.5-17 76.5-50 52.5-80.5T540 242q0-60-19.5-107.5t-52.5-80T391.5 5 300-12m0 68q35 0 63.5 13.5t49 38T444 166t11 76-11 76.5-31.5 59.5-49 38.5T300 430t-63.5-13.5-49-38.5-31.5-59.5-11-76.5 11-76 31.5-58.5 49-38T300 56" glyph-name="uni043E" unicode="о"/><glyph d="M93 0v486h414V0h-82v419H175V0z" glyph-name="uni043F" unicode="п"/><glyph d="M93-205v691h68l7-62h3q34 32 78.5 53t89.5 21q49 0 86.5-17.5t63-50 38.5-78T540 250q0-62-18-110.5T473.5 57 403 5.5 319-12q-34 0-73.5 16.5T174 51h-3l4-92v-164zM305 57q66 0 108 51t42 142q0 40-8 73t-24.5 56.5T380 416t-62 13q-32 0-68.5-17.5T175 356V114q35-31 70-44t60-13" glyph-name="uni0440" unicode="р"/><glyph d="M346-12q-57 0-105.5 17T156 54.5t-56 80T80 242q0 61 21.5 108.5T160 431t86.5 50T351 498q60 0 103.5-21t73.5-50l-41-53q-30 26-62.5 41T354 430q-42 0-77-13.5T217.5 378 179 318.5 165 242t13.5-76 38-58.5 59-38T352 56q45 0 82.5 17.5T502 117l37-53q-41-36-90-56T346-12" glyph-name="uni0441" unicode="с"/><glyph d="M259 0v419H66v67h468v-67H341V0z" glyph-name="uni0442" unicode="т"/><glyph d="M131-209q-36 0-64 10l17 65q10-3 21.5-5t22.5-2q51 0 83 29.5T261-37l15 36L49 486h83l119-269q14-32 29.5-69T311 76h4q13 35 26.5 71.5T367 217l106 269h78L337-40q-14-36-32-67t-43-53.5-57.5-35.5-73.5-13" glyph-name="uni0443" unicode="у"/><glyph d="M260-205v155l2 74q-17-14-36-25t-44-11q-68 0-109 66T32 242q0 59 12.5 106.5t33 80.5 47.5 51 57 18q25 0 44-10.5t36-25.5l-2 74v176h80V536l-2-76q18 17 41 27.5t47 10.5q34 0 60.5-17.5t44.5-50 27.5-78T568 250q0-62-12.5-110.5t-33-82.5-48-51.5T417-12q-20 0-40.5 10.5T338 24l2-74v-155zM201 57q32 0 61 35v304q-30 33-65 33-38 0-60.5-51.5T114 242q0-87 21-136t66-49m200 0q41 0 63 51t22 142q0 40-4 73t-13.5 56.5T443 416t-39 13q-33 0-66-34V90q17-18 33.5-25.5T401 57" glyph-name="uni0444" unicode="ф"/><glyph d="m64 0 185 252L78 486h91l77-107q13-20 27.5-41t29.5-41h4q14 20 28 42t27 42l73 105h87L349 245 535 0h-90l-85 112q-15 21-31.5 44T296 200h-4q-15-22-30-43.5T232 112L152 0z" glyph-name="uni0445" unicode="х"/><glyph d="M94 0v486h82V67h239v419h82V67h71V15l-8-187h-71V0z" glyph-name="uni0446" unicode="ц"/><glyph d="M408 0v196l-27.5-5.5-24.5-4-26-2-33-.5q-50 0-89 10t-65.5 31.5T102 281t-14 83v122h82V364q0-61 34.5-87T314 251q26 0 47 3t47 9v223h82V0z" glyph-name="uni0447" unicode="ч"/><glyph d="M58 0v486h82V67h122v419h76V67h122v419h82V0z" glyph-name="uni0448" unicode="ш"/><glyph d="M58 0v486h82V67h118v419h76V67h118v419h82V67h60V15l-8-187h-65V0z" glyph-name="uni0449" unicode="щ"/><glyph d="M201 0v419H35v67h248V307h74q87 0 140.5-36.5T551 155q0-81-53.5-118T357 0zm82 66h66q121 0 121 89 0 46-29.5 67T349 243h-66z" glyph-name="uni044A" unicode="ъ"/><glyph d="M70 0v486h75V307h68q81 0 130-36t49-116q0-81-49-118T213 0zm75 66h60q114 0 114 89 0 46-28 67t-86 21h-60zM455 0v486h75V0z" glyph-name="uni044B" unicode="ы"/><glyph d="M125 0v486h83V307h113q44 0 80.5-9t62.5-27.5 40-47 14-68.5q0-41-14-70t-40-48-62.5-28T321 0zm83 66h104q125 0 125 89 0 46-30.5 67T312 243H208z" glyph-name="uni044C" unicode="ь"/><glyph d="M256-12q-57 0-107 18.5T61 60l35 51q28-26 67-41.5T248 54q84 0 135 41t57 125H189v64h249q-11 75-60.5 112T256 433q-48 0-83-15t-63-39l-39 50q32 29 78 49t112 20q53 0 100-15.5t82.5-47 56-80T520 242q0-64-20-111.5t-55-79T361.5 4 256-12" glyph-name="uni044D" unicode="э"/><glyph d="M384-12q-72 0-121.5 56T207 213h-81V0H44v486h82V286h82q9 107 57.5 159.5T384 498q39 0 72-15.5t57-47.5 37.5-80T564 242q0-64-13.5-112T513 50.5t-57-47T384-12m-2 68q45 0 71.5 45.5T480 242q0 96-26.5 142T382 430q-47 0-74.5-46T280 242q0-95 27.5-140.5T382 56" glyph-name="uni044E" unicode="ю"/><glyph d="M418 0v190H286L148 0H55l145 196q-51 12-87 47.5T77 342q0 40 14 67.5t38.5 44.5 58.5 24.5 73 7.5h240V0zM275 254h143v166H275q-55 0-85.5-18T159 340q0-43 30.5-64.5T275 254" glyph-name="uni044F" unicode="я"/><glyph d="M330-12q-55 0-102.5 17t-83 50-56 80.5T68 244q0 59 20.5 106t55 80 79 50.5T316 498q52 0 93.5-16.5t70-46.5 43.5-72 15-93q0-14-1-27t-3-23H151q8-83 60.5-124.5T340 54q44 0 79.5 12.5T488 100l30-54q-36-24-82.5-41T330-12m-12 445q-30 0-57.5-10T211 394.5 174 348t-21-64h310q-5 75-43.5 112T318 433m19 135L180 721l58 56 142-168z" glyph-name="uni0450" unicode="ѐ"/><glyph d="M330-12q-55 0-102.5 17t-83 50-56 80.5T68 244q0 59 20.5 106t55 80 79 50.5T316 498q52 0 93.5-16.5t70-46.5 43.5-72 15-93q0-14-1-27t-3-23H151q8-83 60.5-124.5T340 54q44 0 79.5 12.5T488 100l30-54q-36-24-82.5-41T330-12m-12 445q-30 0-57.5-10T211 394.5 174 348t-21-64h310q-5 75-43.5 112T318 433m-99 155q-24 0-39.5 16T164 644q0 23 15.5 39.5T219 700t39.5-16.5T274 644q0-24-15.5-40T219 588m194 0q-24 0-39.5 16T358 644q0 23 15.5 39.5T413 700t39.5-16.5T468 644q0-24-15.5-40T413 588" glyph-name="uni0451" unicode="ё"/><glyph d="M334-217q-19 0-34.5 4t-26.5 9l16 62q8-3 18.5-5.5T329-150q26 0 49 14t39.5 49 26 95.5T453 162q0 132-34 188.5T318 407q-38 0-69.5-21.5T175 319V0H93v564H20v57l73 5v86h82v-86h213v-62H175v-66l-5-114h3q36 40 77 67t94 27q94 0 144-76.5T538 171q0-113-14-187.5t-40.5-119-64.5-63-85-18.5" glyph-name="uni0452" unicode="ђ"/><glyph d="M146 0v486h377v-67H228V0zm182 568-43 41 142 168 58-56z" glyph-name="uni0453" unicode="ѓ"/><glyph d="M346-12q-57 0-106 16t-84.5 47.5-55.5 79T80 242t21.5 112.5 58.5 80 86.5 47.5T351 498q60 0 103-19t75-48l-39-52q-29 25-63 39.5T351 433q-75 0-126-37.5T162 284h263v-64H160q6-83 57-124.5T353 54q46 0 84.5 16.5T505 112l34-52q-40-35-89.5-53.5T346-12" glyph-name="uni0454" unicode="є"/><glyph d="M310-12q-72 0-133 22.5T71 64l38 54q42-30 92.5-48T320 52q62 0 92.5 22.5T443 128q0 14-5 26t-21.5 23-46.5 21-79 20q-95 20-142.5 53.5T101 360q0 29 13 54.5t38.5 44 63 29T303 498q56 0 108-18.5t88-43.5l-40-53q-34 23-75 37t-88 14q-62 0-87-21t-25-49q0-32 33-48.5T325 283q61-13 100-27.5t61.5-32.5 31-40 8.5-50q0-30-14-56t-41.5-46-68-31.5T310-12" glyph-name="uni0455" unicode="ѕ"/><glyph d="M316 0v419H90v67h308V0zm32 588q-28 0-47 17.5T282 652t19 46.5 47 17.5 47-17.5 19-46.5-19-46.5-47-17.5" glyph-name="uni0456" unicode="і"/><glyph d="M316 0v419H90v67h308V0zm-65 588q-24 0-39.5 16T196 644q0 23 15.5 39.5T251 700t39.5-16.5T306 644q0-24-15.5-40T251 588m194 0q-24 0-39.5 16T390 644q0 23 15.5 39.5T445 700t39.5-16.5T500 644q0-24-15.5-40T445 588" glyph-name="uni0457" unicode="ї"/><glyph d="M194-217q-38 0-74 9.5T55-184l27 61q26-13 54.5-20t56.5-7q36 0 60 9t38 26 19.5 41.5T316-18v437H90v67h308V-12q0-45-10-82.5t-33.5-65T292-202t-98-15m154 805q-28 0-47 17.5T282 652t19 46.5 47 17.5 47-17.5 19-46.5-19-46.5-47-17.5" glyph-name="uni0458" unicode="ј"/><glyph d="M37-12q-14 0-23.5 2T-7-4L8 72q5-2 9.5-3T28 68q20 0 36 23.5T88 171q11 78 16.5 155t9.5 160h246V307h15q81 0 131-36.5T556 155q0-81-50-118T375 0h-95v419h-96q-4-67-9-138t-15-143q-11-77-44-113.5T37-12m323 78h6q61 0 88.5 21.5T482 155t-27.5 67-88.5 21h-6z" glyph-name="uni0459" unicode="љ"/><glyph d="M58 0v486h80V289h128v197h80V307h27q83 0 131-36t48-116q0-81-48-118T373 0H266v216H138V0zm288 66h18q59 0 86.5 21t27.5 68-27.5 67.5T364 243h-18z" glyph-name="uni045A" unicode="њ"/><glyph d="M93 0v562H20v58l73 6v86h82v-86h213v-64H175v-64l-5-115h3q38 41 81.5 68T355 478q87 0 127.5-49.5T523 282V0h-82v271q0 69-26 102.5T329 407q-22 0-40.5-5.5T252 385t-37-27.5-40-38.5V0z" glyph-name="uni045B" unicode="ћ"/><glyph d="M110 0v486h82V286h128l59 108q16 31 31 51t30 32 31.5 16.5T508 498t32-6l-14-77q-5 2-9.5 2.5t-10.5.5q-9 0-17-2.5t-16-10-17-20-20-33.5l-53-97L560 0h-91L320 219H192V0zm189 568-43 41 142 168 58-56z" glyph-name="uni045C" unicode="ќ"/><glyph d="M100 0v486h80V284q0-39-3-85.5t-5-93.5h4q14 23 32 52t32 52l184 277h76V0h-80v202q0 39 3 85.5t5 94.5h-4q-14-23-32-52.5T360 278L176 0zm232 568L175 721l58 56 142-168z" glyph-name="uni045D" unicode="ѝ"/><glyph d="M131-209q-36 0-64 10l17 65q10-3 21.5-5t22.5-2q51 0 83 29.5T261-37l15 36L49 486h83l119-269q14-32 29.5-69T311 76h4q13 35 26.5 71.5T367 217l106 269h78L337-40q-14-36-32-67t-43-53.5-57.5-35.5-73.5-13m173 781q-42 0-71 12.5t-48 33-28 47.5-10 56l68 4q1-21 5.5-40.5t15-33.5 27-22.5T304 620t41.5 8.5 27 22.5 15 33.5T393 725l68-4q-2-29-10.5-56T423 617.5t-48-33-71-12.5" glyph-name="uni045E" unicode="ў"/><glyph d="M103 0v486h82V67h230v419h82V0H343l-9-172h-70L261 0z" glyph-name="uni045F" unicode="џ"/><glyph d="M160 0v507H24v68h136v125h83V575h222v-68H243V371h66q54 0 98.5-9.5t76.5-30 49.5-53.5 17.5-80q0-53-16.5-90.5t-47-61.5-74-35T315 0zm83 66h62q83 0 123.5 29.5T469 194q0 62-41.5 88.5T298 309h-55z" glyph-name="uni0462" unicode="Ѣ"/><glyph d="M194 0v439H41v67h153v116h82V506h183v-67H276V307h76q43 0 78.5-9t61-27.5 39.5-47 14-68.5q0-41-14-70t-39.5-48-61-28T352 0zm82 66h67q122 0 122 89 0 46-30 67t-92 21h-67z" glyph-name="uni0463" unicode="ѣ"/><glyph d="M300-12q-56 0-102.5 23T118 77.5 66.5 185 48 331t18.5 144.5T118 581t79.5 65T300 668t102.5-22 79.5-65 51.5-106T552 331q0-82-18.5-146T482 77.5 402.5 11 300-12m0 610q-70 0-114.5-56.5T133 379h334q-8 106-52.5 162.5T300 598m0-540q74 0 119 65t50 188H131q5-123 50-188t119-65" glyph-name="uni0472" unicode="Ѳ"/><glyph d="M300-12q-48 0-91.5 16T132 52t-52.5 79.5T60 242t19.5 111 52.5 80.5 76.5 48.5 91.5 16 91.5-16 76.5-48.5 52.5-80.5T540 242t-19.5-110.5T468 52 391.5 4 300-12m0 446q-63 0-105.5-39T141 284h318q-11 72-53.5 111T300 434m0-381q68 0 111.5 43.5T461 220H139q6-80 49.5-123.5T300 53" glyph-name="uni0473" unicode="ѳ"/><glyph d="M248 0 38 656h89l106-354q16-59 30-109t33-108h4q8 29 14.5 55.5T328 193t14 53 15 56l64 227q20 73 48.5 106t81.5 33q15 0 25.5-2t22.5-7l-17-77q-5 2-11.5 4t-14.5 2q-22 0-34.5-18.5T498 514L350 0z" glyph-name="uni0474" unicode="Ѵ"/><glyph d="M249 0 70 486h84l97-276q11-35 23-71.5T297 67h4q9 35 19.5 71t21.5 72l48 148q10 36 21 62.5t25.5 43.5 32.5 25.5 43 8.5q15 0 25.5-2t22.5-7l-17-74q-9 6-24 6-21 0-33-18t-24-55L350 0z" glyph-name="uni0475" unicode="ѵ"/><glyph d="M135 0v656h313l16 172h70l-9-242H218V0z" glyph-name="uni0490" unicode="Ґ"/><glyph d="M162 0v486h259l16 172h66l-8-239H244V0z" glyph-name="uni0491" unicode="ґ"/><glyph d="M140 0v300H60v58l80 4v294h386v-70H224V362h168v-62H224V0z" glyph-name="uni0492" unicode="Ғ"/><glyph d="M146 0v206H72v56l74 6v218h377v-67H228V268h172v-62H228V0z" glyph-name="uni0493" unicode="ғ"/><glyph d="M547-188V0h-39L398 309h-60V0h-76v309h-60L92 0H2l139 351-43 158q-8 26-16 41.5T66.5 574 51 584.5 35 587q-5 0-10.5-1T14 583L1 663q7 2 19 3.5t21 1.5q19 0 36-4.5t32-17 28.5-36T162 548l47-168h53v276h76V380h53l47 168q11 39 23.5 62.5t27 36 31 17T555 668q9 0 23-1.5t21-3.5l-13-80q-5 2-10.5 3t-10.5 1q-8 0-16-2.5T533.5 574 518 550.5 502 509l-43-158L570 71h45V21l-9-209z" glyph-name="uni0496" unicode="Җ"/><glyph d="M541-172V0h-33L403 220h-63V0h-80v220h-63L92 0H6l132 262-34 93q-15 40-31 51.5T41 418h-8.5l-8.5-2-12 77q5 3 13 4t17 1q39 0 68.5-21t52.5-81l42-112h55v202h80V284h55l42 112q23 60 52.5 81t68.5 21q18 0 30-5l-12-77q-5 2-8.5 2H559q-17 0-32.5-11.5T496 355l-34-93 98-195h47V15l-8-187z" glyph-name="uni0497" unicode="җ"/><glyph d="M264-188v177q-60 5-109 27.5T62 84l47 57q44-44 88.5-62.5T300 60q33 0 61.5 8.5t50 25 34 40.5 12.5 55q0 63-47 93t-133 30h-74v64h54q88 0 127 28.5t39 84.5q0 52-37 78.5T293 594q-47 0-86.5-17T136 531l-45 56q36 35 89.5 57.5T295 667q47 0 86-11.5t66.5-33 43-53T506 499q0-52-25-91.5T408 351v-4q57-11 94.5-52.5T540 185q0-42-14.5-76t-41-58.5-62-40T345-10l-8-178z" glyph-name="uni0498" unicode="Ҙ"/><glyph d="m250-172-4 161q-49 4-94 20T62 61l36 54q42-35 86-48t89-13q76 0 117 22.5t41 64.5-38.5 60.5T281 220h-84v64h72q70 0 104.5 19.5T408 359q0 74-134 74-53 0-90.5-13.5T108 378l-34 55q42 31 91.5 48T279 498q46 0 84.5-8t66.5-24 43.5-41 15.5-58q0-36-21.5-63.5T402 259v-4q50-13 80.5-40.5T513 134q0-62-50-99T328-10l-9-162z" glyph-name="uni0499" unicode="ҙ"/><glyph d="M513-188V0h-25L292 309H185V0h-83v656h83V380h107l88 166q19 37 36.5 61t34.5 37.5 35.5 18.5 41.5 5q9 0 18.5-1.5T564 662l-15-78q-6 2-12 3t-11 1q-11 0-20.5-3t-19-11.5-21-25T440 505l-81-153L535 71h53V21l-9-209z" glyph-name="uni049A" unicode="Қ"/><glyph d="M502-172V0h-33L320 219H192V0h-82v486h82V286h128l59 108q16 31 31 51t30 32 31.5 16.5T508 498t32-6l-14-77q-5 2-9.5 2.5t-10.5.5q-9 0-17-2.5t-16-10-17-20-20-33.5l-53-97L513 67h60V15l-8-187z" glyph-name="uni049B" unicode="қ"/><glyph d="M205 0v586H19v70h262V380h66l75 166q18 39 33 62.5t30.5 37 32 18T554 668q19 0 33-6l-14-77q-9 3-20 3-8 0-15.5-2.5t-16-11.5-19-25.5T479 505l-73-154L600 0h-81L345 309h-64V0z" glyph-name="uni04A0" unicode="Ҡ"/><glyph d="M202 0v419H33v67h244V286h95l42 108q12 32 25.5 52.5t28.5 32 31.5 15.5 34.5 4q16 0 29-5l-15-77q-5 2-8 2h-8q-17 0-31.5-11.5T469 352l-39-101L582 0h-79L372 219h-95V0z" glyph-name="uni04A1" unicode="ҡ"/><glyph d="M79 0v656h84V381h272v275h83V71h71V21l-9-209h-64V0h-81v309H163V0z" glyph-name="uni04A2" unicode="Ң"/><glyph d="M93 0v486h82V289h240v197h82V67h71V15l-8-187h-71V0h-74v216H175V0z" glyph-name="uni04A3" unicode="ң"/><glyph d="M313-188v178q-54 7-99.5 33T135 92 83.5 194.5 65 328q0 79 22 142t61 107 93 67.5T359 668q59 0 104.5-24t74.5-56l-47-53q-26 27-58 43.5T359 595q-47 0-85.5-18.5t-65.5-53-42-83.5-15-110q0-62 15-111.5t42-84.5 65.5-54T359 61q45 0 80.5 19t67.5 54l47-51q-32-38-71-61T394-9l-8-179z" glyph-name="uni04AA" unicode="Ҫ"/><glyph d="M303-172 300-9q-48 6-88.5 26T142 69t-45.5 75.5T80 242q0 61 21.5 108.5T160 431t86.5 50T351 498q60 0 103.5-21t73.5-50l-41-53q-30 26-62.5 41T354 430q-42 0-77-13.5T217.5 378 179 318.5 165 242t13.5-76 38-58.5 59-38T352 56q45 0 82.5 17.5T502 117l37-53q-34-30-73.5-49T381-10l-9-162z" glyph-name="uni04AB" unicode="ҫ"/><glyph d="M258 0v234L38 656h88l99-195q19-38 37-75.5t38-77.5h4l39 78 38 76 95 194h86L342 234V0z" glyph-name="uni04AE" unicode="Ү"/><glyph d="M262-205V-6L51 486h84l110-269q15-37 29-74t27-71h4q13 34 26 71t28 74l110 269h80L344-6v-199z" glyph-name="uni04AF" unicode="ү"/><glyph d="M106 220v58l89 4h38L38 656h88l99-195q19-38 37-75.5t38-77.5h4l39 78 38 76 95 194h86L367 282h127v-62H342V0h-84v220z" glyph-name="uni04B0" unicode="Ұ"/><glyph d="M100 0v56l78 6h57L51 486h84l110-269q15-37 29-74t27-71h4q13 34 26 71t28 74l110 269h80L370 62h130V0H344v-205h-82V0z" glyph-name="uni04B1" unicode="ұ"/><glyph d="M491-188V0h-37l-99 177q-14 24-27.5 49.5T297 282h-4q-14-30-27-55.5T240 177L142 0H54l196 339L67 656h92l92-168q13-23 25-44.5t28-50.5h4q14 29 24.5 50.5T355 488l90 168h88L350 335 504 71h60V21l-8-209z" glyph-name="uni04B2" unicode="Ҳ"/><glyph d="M481-172V0h-36l-85 112q-15 21-31.5 44T296 200h-4q-15-22-30-43.5T232 112L152 0H64l185 252L78 486h91l77-107q13-20 27.5-41t29.5-41h4q14 20 28 42t27 42l73 105h87L349 245 484 67h76V15l-8-187z" glyph-name="uni04B3" unicode="ҳ"/><glyph d="M427 0v294q-24-5-53.5-7.5T304 284q-56 0-100.5 11t-75 36.5-47 67T65 500v156h82V500q0-83 42.5-115T312 353q38 0 66 2.5t49 7.5v293h84V71h71V21l-9-209h-70V0z" glyph-name="uni04B6" unicode="Ҷ"/><glyph d="M402 0v196q-15-3-26.5-5.5t-23.5-4-25.5-2-32.5-.5q-98 0-152 40.5T88 360v126h82V360q0-58 33.5-83.5T311 251q25 0 45.5 3t45.5 9v223h82V67h71V15l-8-187h-71V0z" glyph-name="uni04B7" unicode="ҷ"/><glyph d="M91 0v656h83V398q24 4 52.5 7t66.5 3q56 0 100.5-11t75-36.5 47-66.5T532 194V0h-82v194q0 41-10.5 69T408 308t-51.5 24-70.5 7q-37 0-64.5-3t-47.5-7V0z" glyph-name="uni04BA" unicode="Һ"/><glyph d="M93 0v712h82V518l-5-115h3q38 41 81.5 68T355 498q87 0 127.5-49.5T523 302V0h-82v291q0 69-26 102.5T329 427q-22 0-40.5-5.5T252 405t-37-27.5-40-38.5V0z" glyph-name="uni04BB" unicode="һ"/><glyph d="M95 0v71h163v515H95v70h410v-70H342V71h163V0z" glyph-name="uni04C0" unicode="Ӏ"/><glyph d="m2 0 139 351-43 158q-8 26-16 41.5T66.5 574 51 584.5 35 587q-5 0-10.5-1T14 583L1 663q7 2 19 3.5t21 1.5q19 0 36-4.5t32-17 28.5-36T162 548l47-168h53v276h76V380h53l47 168q11 39 23.5 62.5t27 36 31 17T555 668q9 0 23-1.5t21-3.5l-13-80q-5 2-10.5 3t-10.5 1q-8 0-16-2.5T533.5 574 518 550.5 502 509l-43-158L598 0h-90L398 309h-60V0h-76v309h-60L92 0zm298 705q-42 0-70 10.5T184.5 744t-26 41-9.5 48l72 4q1-35 19-60.5t60-25.5q21 0 35.5 7t24 18.5 14 27T379 837l72-4q-2-25-10-48t-25.5-41-45.5-28.5-70-10.5" glyph-name="uni04C1" unicode="Ӂ"/><glyph d="m6 0 132 262-34 93q-15 40-31 51.5T41 418h-8.5l-8.5-2-12 77q5 3 13 4t17 1q39 0 68.5-21t52.5-81l42-112h55v202h80V284h55l42 112q23 60 52.5 81t68.5 21q18 0 30-5l-12-77q-5 2-8.5 2H559q-17 0-32.5-11.5T496 355l-34-93L594 0h-86L403 220h-63V0h-80v220h-63L92 0zm294 572q-42 0-71 12.5t-48 33-28 47.5-10 56l68 4q1-21 5.5-40.5t15-33.5 27-22.5T300 620t41.5 8.5 27 22.5 15 33.5T389 725l68-4q-2-29-10.5-56T419 617.5t-48-33-71-12.5" glyph-name="uni04C2" unicode="ӂ"/><glyph d="M407-12q-78 0-119 44t-41 131v482H74v67h255V157q0-54 26-77.5T425 56q43 0 91 22l21-61Q503 3 475-4.5T407-12" glyph-name="uni04CF" unicode="ӏ"/><glyph d="m232 367-31-100h196l-31 100q-17 55-33.5 109.5T301 588h-4q-16-57-32-111.5T232 367M32 0l221 656h94L568 0h-88l-62 200H180L117 0zm268 705q-42 0-70 10.5T184.5 744t-26 41-9.5 48l72 4q1-35 19-60.5t60-25.5q21 0 35.5 7t24 18.5 14 27T379 837l72-4q-2-25-10-48t-25.5-41-45.5-28.5-70-10.5" glyph-name="uni04D0" unicode="Ӑ"/><glyph d="M246-12q-34 0-64 9.5t-52.5 27-35.5 43T81 126q0 41 19.5 71.5t62 52.5T272 286t161 22q-1 25-8 47t-22 38.5-39.5 26.5-59.5 10q-48 0-92-18.5T134 372l-32 56q18 12 42.5 24.5t52 22.5 58.5 16.5 63 6.5q100 0 148.5-54.5T515 298V0h-67l-7 66h-3q-41-32-90.5-55T246-12m22 66q42 0 82.5 18.5T433 126v128q-78-6-130.5-17t-84-26.5-44.5-35-13-43.5q0-21 9-35.5t23.5-24 34-14T268 54m52 518q-42 0-71 12.5t-48 33-28 47.5-10 56l68 4q1-21 5.5-40.5t15-33.5 27-22.5T320 620t41.5 8.5 27 22.5 15 33.5T409 725l68-4q-2-29-10.5-56T439 617.5t-48-33-71-12.5" glyph-name="uni04D1" unicode="ӑ"/><glyph d="m231 377-46-119h132v332h-3q-20-54-41.5-106.5T231 377M-1 0l264 656h319v-70H393V381h147v-71H393V71h198V0H317v191H159L86 0z" glyph-name="uni04D4" unicode="Ӕ"/><glyph d="M145-12q-56 0-92 35t-36 97q0 74 58.5 119.5T266 302q-2 71-26 99.5T178 430q-30 0-60.5-12T64 390l-31 56q30 20 69.5 36t82.5 16q44 0 75-23t48-77q25 54 62 77t78 23q38 0 66-18t46.5-48.5T588 361t9-85q0-14-1-28.5t-3-27.5H332q4-77 36-121t89-44q28 0 51.5 9T552 87l30-56Q557 13 524.5.5T454-12q-51 0-88.5 22.5T304 75q-35-42-74.5-64.5T145-12m22 66q28 0 59 17.5t57 51.5q-17 54-17 119v7q-51-8-84-19.5T129 203t-28-34-8-41q0-35 20.5-54.5T167 54m276 379q-38 0-70-34t-40-115h197q-4 149-87 149" glyph-name="uni04D5" unicode="ӕ"/><glyph d="M114 0v656h406v-70H198V380h272v-71H198V71h332V0zm217 705q-42 0-70 10.5T215.5 744t-26 41-9.5 48l72 4q1-35 19-60.5t60-25.5q21 0 35.5 7t24 18.5 14 27T410 837l72-4q-2-25-10-48t-25.5-41-45.5-28.5-70-10.5" glyph-name="uni04D6" unicode="Ӗ"/><glyph d="M330-12q-55 0-102.5 17t-83 50-56 80.5T68 244q0 59 20.5 106t55 80 79 50.5T316 498q52 0 93.5-16.5t70-46.5 43.5-72 15-93q0-14-1-27t-3-23H151q8-83 60.5-124.5T340 54q44 0 79.5 12.5T488 100l30-54q-36-24-82.5-41T330-12m-12 445q-30 0-57.5-10T211 394.5 174 348t-21-64h310q-5 75-43.5 112T318 433m-2 139q-42 0-71 12.5t-48 33-28 47.5-10 56l68 4q1-21 5.5-40.5t15-33.5 27-22.5T316 620t41.5 8.5 27 22.5 15 33.5T405 725l68-4q-2-29-10.5-56T435 617.5t-48-33-71-12.5" glyph-name="uni04D7" unicode="ӗ"/><glyph d="M300-12q-55 0-99.5 24.5t-76 68.5T76 187.5 59 327v11.5l1 11.5h407q-4 118-47 182t-123 64q-41 0-74-16t-58-42l-40 57q31 32 74.5 52.5T301 668t104-23.5 78.5-67 49.5-106T550 330t-18.5-142T480 80.5 401 12 300-12m0 72q69 0 113.5 57T466 286H141q8-114 49-170t110-56" glyph-name="uni04D8" unicode="Ә"/></font>
</defs>
</svg>
